<?xml version="1.0" standalone="no"?>
<!DOCTYPE svg PUBLIC "-//W3C//DTD SVG 1.1//EN" "http://www.w3.org/Graphics/SVG/1.1/DTD/svg11.dtd" >
<svg xmlns="http://www.w3.org/2000/svg">
<metadata></metadata>
<defs>
<font id="latoblack_italic" horiz-adv-x="1187" >
<font-face units-per-em="2048" ascent="1649" descent="-399" />
<missing-glyph horiz-adv-x="395" />
<glyph unicode="&#xfb01;" horiz-adv-x="1191" d="M508 1060h628l-129 -1060h-312l105 843h-306l-96 -794l-55 -178q-18 -59 -56 -92t-108 -33h-129l135 1099l-57 13q-31 7 -50 21.5t-19 41.5q0 1 0.5 4.5t2 16.5t5 41t8.5 77h137l2 15q11 96 52.5 180.5t114.5 147.5t179 99t246 36q43 0 89 -4.5t79 -13.5l-31 -155 q-3 -13 -10 -21t-17.5 -12.5t-22.5 -6t-24 -1.5q-100 0 -165.5 -16t-106.5 -47t-61 -79t-27 -113z" />
<glyph unicode="&#xfb02;" horiz-adv-x="1204" d="M496 843l-98 -794l-55 -178q-18 -59 -56 -92t-108 -33h-129l134 1099l-56 13q-31 7 -50 21.5t-19 41.5q0 1 0.5 4.5t2 16.5t5 41t9.5 77h135l5 39q10 81 44 157.5t92.5 135.5t142.5 95t194 36q87 0 163.5 -6.5t155.5 -6.5h201l-186 -1510h-307l157 1292q-42 5 -82.5 10 t-78.5 5q-85 0 -136.5 -51.5t-60.5 -156.5l-4 -39h203l-27 -217h-191z" />
<glyph horiz-adv-x="0" />
<glyph unicode="&#xd;" horiz-adv-x="0" />
<glyph horiz-adv-x="0" />
<glyph horiz-adv-x="0" />
<glyph unicode=" "  horiz-adv-x="395" />
<glyph unicode="&#x09;" horiz-adv-x="395" />
<glyph unicode="&#xa0;" horiz-adv-x="395" />
<glyph unicode="!" horiz-adv-x="714" d="M625 1492l-72 -588q-11 -93 -33.5 -185.5t-52.5 -190.5h-207q-2 39 -3.5 77t-1.5 76q0 56 3 111.5t10 111.5l72 588h285zM154 161q0 37 13.5 68.5t37.5 55t57 37.5t72 14q38 0 70.5 -14t57 -37.5t38.5 -55t14 -68.5t-14 -69.5t-38.5 -56t-57 -36.5t-70.5 -13 q-39 0 -72 13t-57 36.5t-37.5 56t-13.5 69.5z" />
<glyph unicode="&#x22;" horiz-adv-x="847" d="M487 1490l-36 -293l-48 -162q-15 -53 -41.5 -81t-78.5 -28q-45 0 -66 28t-24 81l-9 162l37 293h266zM872 1490l-36 -293l-48 -162q-15 -53 -41.5 -81t-78.5 -28q-45 0 -66 28t-24 81l-9 162l37 293h266z" />
<glyph unicode="#" d="M857 407l-122 -407h-143q-34 0 -54.5 24t-20.5 61q0 8 1 17.5t4 19.5l85 285h-177l-88 -301q-8 -29 -24 -49t-36 -33t-43 -18.5t-46 -5.5h-138l124 407h-95q-34 0 -53 14.5t-19 47.5q0 26 11 57l28 95h183l75 250h-207l39 124q14 46 47.5 67t100.5 21h76l92 309 q14 47 53.5 72.5t87.5 25.5h141l-124 -407h177l123 407h138q39 0 62.5 -20.5t23.5 -53.5q0 -14 -4 -26l-92 -307h202l-41 -122q-15 -46 -48 -68t-97 -22h-72l-75 -250h118q34 0 53 -15t19 -48q0 -26 -10 -57l-29 -94h-206zM484 621h179l74 250h-176z" />
<glyph unicode="$" d="M384 -6q-57 9 -112 26.5t-104 41.5t-91.5 53.5t-74.5 64.5l113 136q14 17 35 28.5t45 11.5q25 0 48 -13t51.5 -32t63 -38.5t80.5 -31.5l87 401q-66 18 -129.5 44t-115 67t-83 103t-31.5 154t38 178.5t109 154.5t172.5 111t228.5 49l25 116q6 29 31.5 51t58.5 22h113 l-44 -201q109 -20 182 -65t122 -98l-88 -109q-20 -26 -38.5 -37t-43.5 -11q-15 0 -34.5 8t-43 19.5t-51 24t-59.5 21.5l-82 -377q66 -20 131 -45.5t117 -65t84 -97t32 -141.5q0 -102 -38 -195t-110.5 -164.5t-175.5 -117t-233 -54.5l-28 -134q-5 -27 -31 -49t-59 -22h-113z M827 446q0 54 -35 86.5t-91 55.5l-77 -355q102 15 152.5 69t50.5 144zM461 1076q0 -55 35 -89.5t92 -58.5l70 323q-54 -7 -92 -23.5t-61.5 -39.5t-33.5 -51.5t-10 -60.5z" />
<glyph unicode="%" horiz-adv-x="1548" d="M791 1183q0 -95 -33.5 -173t-87.5 -133.5t-122.5 -85.5t-139.5 -30q-66 0 -119 23t-91 65t-58.5 100.5t-20.5 128.5q0 95 29.5 173.5t81 135t121 87t149.5 30.5q66 0 119.5 -23t92 -65.5t59 -101.5t20.5 -131zM555 1181q0 74 -22 104t-58 30q-28 0 -50.5 -13t-37.5 -41 t-24 -73t-9 -110q0 -71 21 -98.5t57 -27.5q27 0 49.5 11.5t39 38t25.5 70.5t9 109zM1251 1445q17 16 40.5 30.5t62.5 14.5h223l-1219 -1447q-17 -17 -40 -30t-56 -13h-227zM1489 403q0 -95 -33.5 -172.5t-87 -133t-122 -85.5t-140.5 -30q-66 0 -119 23t-91 65t-58.5 100 t-20.5 128q0 96 30 175t81 135.5t120.5 87t149.5 30.5q66 0 119.5 -23.5t92 -65.5t59 -102t20.5 -132zM1253 401q0 75 -22 104t-57 29q-28 0 -50.5 -12.5t-38 -40.5t-24 -73.5t-8.5 -109.5q0 -70 21 -98t56 -28q27 0 49.5 11.5t39 38.5t25.5 70.5t9 108.5z" />
<glyph unicode="&#x26;" horiz-adv-x="1366" d="M750 1506q92 0 160.5 -27.5t114 -74t68.5 -109t23 -131.5l-184 -36q-17 -3 -30 -3q-24 0 -37 11t-21 36q-35 109 -123 109q-35 0 -62 -16t-45.5 -42.5t-28.5 -62.5t-10 -76q0 -41 14 -86t48 -97l278 -367q56 113 81 242q5 28 20 45.5t45 17.5h217q-19 -151 -71.5 -281 t-130.5 -235l245 -323h-266q-37 0 -63 4.5t-46.5 15t-37.5 26t-36 39.5l-18 24q-90 -60 -191.5 -92.5t-209.5 -32.5q-103 0 -183.5 27t-134 77.5t-81 122t-27.5 159.5q0 78 24 146t66 125.5t100 104.5t126 80q-29 62 -40.5 123.5t-11.5 116.5q0 89 31.5 169t91 140.5 t145 95.5t191.5 35zM342 409q0 -42 9 -77t30 -60t55 -39t82 -14q53 0 104.5 18.5t98.5 53.5l-267 365q-63 -54 -87.5 -116t-24.5 -131z" />
<glyph unicode="'" horiz-adv-x="464" d="M487 1490l-36 -293l-48 -162q-15 -53 -41.5 -81t-78.5 -28q-45 0 -66 28t-24 81l-9 162l37 293h266z" />
<glyph unicode="(" horiz-adv-x="565" d="M336 437q0 -68 4.5 -143t14 -151t24 -149.5t35.5 -136.5q4 -12 6.5 -23t2.5 -20q0 -28 -15.5 -45t-36.5 -28l-146 -79q-41 86 -70 181t-48 192t-28 194.5t-9 186.5q0 160 21 311t68 298t122 294t184 301l127 -78q14 -10 25 -23t11 -32q0 -12 -6.5 -26.5t-17.5 -35.5 q-58 -106 -108 -220.5t-85 -238.5t-55 -256.5t-20 -272.5z" />
<glyph unicode=")" horiz-adv-x="565" d="M264 845q0 68 -4.5 143t-13.5 151t-24 149.5t-36 136.5q-4 12 -6.5 23t-2.5 20q0 28 15.5 45t36.5 28l146 79q41 -86 70 -180.5t48 -192.5t28 -195t9 -186q0 -160 -21 -311t-68 -298t-122 -294t-184 -301l-127 78q-14 10 -25 23t-11 32q0 12 6.5 26.5t17.5 35.5 q58 105 108 220.5t85 238.5t55 256t20 273z" />
<glyph unicode="*" horiz-adv-x="753" d="M344 839l23 179q5 43 20 79q-14 -14 -31 -25.5t-37 -21.5l-145 -89l-55 117l145 89q20 11 40.5 19.5t40.5 12.5q-39 6 -73 31l-125 91l86 119l125 -92q15 -10 29.5 -21.5t26.5 -24.5q-4 17 -4 43v16.5t2 16.5l22 181h144l-23 -180q-3 -20 -7.5 -44.5t-13.5 -42.5 q14 14 31 29.5t37 26.5l146 90l55 -119l-146 -89q-20 -11 -40.5 -19t-41.5 -12q19 -4 38 -11.5t36 -20.5l123 -91l-84 -115l-125 89q-16 10 -30 21t-25 25q2 -10 3 -20.5t1 -21.5q0 -8 -0.5 -17t-1.5 -17l-23 -181h-143z" />
<glyph unicode="+" d="M803 1205l-50 -407h384l-29 -219h-382l-50 -410h-250l51 410h-381l29 219h379l51 407h248z" />
<glyph unicode="," horiz-adv-x="483" d="M31 180q0 33 12 61t35 49t54.5 33.5t70.5 12.5q46 0 79.5 -16t56 -43t33.5 -62.5t11 -74.5q0 -51 -16.5 -109t-48.5 -116t-80.5 -114.5t-110.5 -102.5l-55 49q-11 11 -17 20.5t-6 22.5q0 16 18 36.5t41 47t45.5 58.5t32.5 73q-35 3 -63.5 17.5t-49 37.5t-31.5 53.5 t-11 66.5z" />
<glyph unicode="-" horiz-adv-x="702" d="M125 745h514l-33 -247h-512z" />
<glyph unicode="." horiz-adv-x="483" d="M25 161q0 37 13.5 68.5t37.5 55t57 37.5t72 14q38 0 70.5 -14t57 -37.5t38.5 -55t14 -68.5t-14 -69.5t-38.5 -56t-57 -36.5t-70.5 -13q-39 0 -72 13t-57 36.5t-37.5 56t-13.5 69.5z" />
<glyph unicode="/" horiz-adv-x="768" d="M209 7q-12 -28 -32 -48t-43.5 -34t-49 -21t-47.5 -7h-131l698 1493q24 51 69 77.5t99 26.5h129z" />
<glyph unicode="0" d="M713 1506q103 0 188 -37.5t145.5 -113.5t94 -190t33.5 -266q0 -232 -50.5 -404t-138 -286t-206.5 -169.5t-255 -55.5q-103 0 -188 37.5t-145.5 114t-94 190t-33.5 265.5q0 232 50.5 404t138 286t206 169.5t255.5 55.5zM565 229q62 0 115.5 41t92 123.5t60 207.5t21.5 293 q0 109 -16 179.5t-41.5 112.5t-58 59t-66.5 17q-63 0 -116 -41t-91.5 -124t-60 -208t-21.5 -292q0 -109 16 -180t41.5 -112.5t58 -58.5t66.5 -17z" />
<glyph unicode="1" d="M227 222h289l96 803l22 92l-202 -155q-17 -13 -34 -17.5t-31 -4.5q-27 0 -45.5 11t-26.5 23l-80 129l510 390h254l-157 -1271h251l-29 -222h-843z" />
<glyph unicode="2" d="M731 1506q99 0 178.5 -28t134.5 -78.5t84 -120.5t29 -153q0 -92 -27 -168t-74 -145t-111 -132.5t-138 -130.5l-338 -308q57 16 112.5 25t102.5 9h297q46 0 70.5 -23.5t24.5 -62.5q0 -2 -0.5 -6.5l-2.5 -22.5t-6.5 -55.5t-13.5 -105.5h-1043l13 98q3 28 19 61.5t48 60.5 l488 436q72 65 122 120t81 107.5t45 104t14 109.5q0 75 -40 117.5t-120 42.5q-37 0 -69 -10.5t-59 -29.5t-47.5 -44.5t-33.5 -55.5q-20 -44 -48.5 -63.5t-70.5 -19.5q-23 0 -43 4l-157 28q31 111 87 193t131.5 137.5t167.5 82.5t193 27z" />
<glyph unicode="3" d="M768 1506q101 0 179 -28t130 -75.5t79.5 -110.5t27.5 -134q0 -81 -17 -141.5t-50.5 -103.5t-83 -71.5t-114.5 -46.5q105 -43 157 -117.5t52 -179.5q0 -85 -22.5 -156t-61.5 -128t-94 -100t-119.5 -72.5t-136.5 -43.5t-147 -14q-106 0 -187 23t-139.5 71.5t-96.5 123 t-61 179.5l144 55q19 8 37 11.5t36 3.5q32 0 54.5 -12.5t32.5 -36.5q34 -89 82 -129.5t126 -40.5q59 0 105.5 21t78.5 56.5t48 83t16 100.5q0 37 -11 67t-43.5 51.5t-89.5 33t-151 11.5l29 210q93 1 155 17t99 45t52.5 71.5t15.5 98.5q0 77 -40.5 118t-119.5 41 q-76 0 -130 -40t-81 -100q-20 -44 -48.5 -63.5t-69.5 -19.5q-9 0 -20 1t-22 3l-158 28q30 111 86.5 193t131.5 137.5t167 82.5t193 27z" />
<glyph unicode="4" d="M1012 574h153l-24 -171q-3 -23 -20.5 -39.5t-47.5 -16.5h-89l-42 -347h-276l42 347h-598q-30 0 -54.5 19t-27.5 52l-12 142l807 932h301zM784 984q4 31 11 66t17 73l-465 -549h388z" />
<glyph unicode="5" d="M1126 1365q-4 -31 -16.5 -57t-36.5 -45t-60 -29t-85 -10h-365l-77 -263q42 8 81 11t75 3q110 0 192 -31t137 -84.5t82.5 -126.5t27.5 -156q0 -130 -49 -239.5t-135 -187.5t-202 -122t-251 -44q-73 0 -136.5 14.5t-117.5 40.5t-98.5 59.5t-79.5 71.5l111 128 q17 20 38.5 29.5t43.5 9.5q30 0 55 -16.5t55.5 -36.5t72.5 -36.5t106 -16.5q73 0 125.5 26t86 68t50 97t16.5 116q0 90 -55 142.5t-167 52.5q-43 0 -93 -8t-109 -27l-182 52l219 742h758z" />
<glyph unicode="6" d="M756 941q75 0 145 -24t124 -72t87 -121t33 -169q0 -117 -45.5 -221t-127 -181.5t-192.5 -123t-241 -45.5q-113 0 -201 34t-148 95t-91 145.5t-31 184.5q0 138 58.5 262.5t172.5 256.5l395 457q26 30 72 50.5t100 20.5h273l-550 -578q38 14 79.5 21.5t87.5 7.5zM358 433 q0 -47 13 -85.5t38.5 -65.5t64 -42t89.5 -15q55 0 105 21t87 59t59 89t22 112q0 50 -15.5 89.5t-43 67t-67.5 42.5t-89 15q-55 0 -103.5 -20.5t-84 -58t-55.5 -90t-20 -118.5z" />
<glyph unicode="7" d="M1253 1492l-14 -118q-5 -41 -15 -75.5t-24 -57.5l-702 -1173q-17 -29 -50 -48.5t-67 -19.5h-258l672 1084q26 41 54 75t60 65h-665q-27 0 -44.5 18.5t-17.5 41.5q0 11 2.5 34t7 52t9 60.5t8.5 61.5h1044z" />
<glyph unicode="8" d="M530 -16q-110 0 -197.5 28t-150.5 79t-97 123.5t-34 160.5q0 71 17 133t54 114t94 91.5t137 64.5q-85 42 -127 111.5t-42 163.5q0 97 41 180t113.5 144t169 95t209.5 34q97 0 177.5 -28t137.5 -76.5t88 -115t31 -143.5q0 -131 -62 -225t-186 -144q114 -43 164.5 -120 t50.5 -180q0 -112 -44 -202.5t-122.5 -154.5t-186.5 -98.5t-235 -34.5zM559 215q62 0 108 19.5t76 53.5t45 80.5t15 100.5q0 41 -10.5 75.5t-33.5 58.5t-59 37t-88 13q-68 0 -113.5 -19t-74.5 -52.5t-41 -80t-12 -101.5q0 -40 10.5 -73.5t33.5 -58t59 -39t85 -14.5zM641 885 q67 0 108 23t63.5 57.5t30 76.5t7.5 79q0 32 -8.5 61t-27.5 51.5t-49.5 36t-74.5 13.5q-55 0 -94.5 -18.5t-65 -49.5t-37.5 -72t-12 -86q0 -33 8 -63.5t26.5 -55t49 -39t76.5 -14.5z" />
<glyph unicode="9" d="M539 584q-68 0 -133 23t-116 69t-82.5 115.5t-31.5 163.5q0 113 44 213t122.5 175t186 119t233.5 44q109 0 193.5 -32t142.5 -89.5t88.5 -137t30.5 -174.5q0 -82 -16 -153t-46 -137t-72 -128.5t-94 -125.5l-381 -460q-25 -30 -68 -49.5t-98 -19.5h-282l540 567l32 34 t30 34q-50 -26 -106.5 -38.5t-116.5 -12.5zM926 1069q0 47 -14.5 83.5t-40.5 61.5t-63 38.5t-81 13.5q-54 0 -98 -20t-75.5 -56.5t-49 -85.5t-17.5 -108q0 -92 47.5 -140t141.5 -48q58 0 104 19t78.5 53t50 82.5t17.5 106.5z" />
<glyph unicode=":" horiz-adv-x="483" d="M25 161q0 37 13.5 68.5t37.5 55t57 37.5t72 14q38 0 70.5 -14t57 -37.5t38.5 -55t14 -68.5t-14 -69.5t-38.5 -56t-57 -36.5t-70.5 -13q-39 0 -72 13t-57 36.5t-37.5 56t-13.5 69.5zM123 860q0 37 14 69t38 55.5t56.5 37t71.5 13.5q38 0 71 -13.5t57.5 -37t38 -55.5 t13.5 -69t-13.5 -69t-38 -55.5t-57.5 -37t-71 -13.5q-39 0 -71.5 13.5t-56.5 37t-38 55.5t-14 69z" />
<glyph unicode=";" horiz-adv-x="483" d="M25 180q0 33 12 61t35 49t54.5 33.5t70.5 12.5q46 0 79.5 -16t56 -43t33.5 -62.5t11 -74.5q0 -51 -16.5 -109t-48.5 -116t-80.5 -114.5t-110.5 -102.5l-55 49q-11 11 -17 20.5t-6 22.5q0 16 18 36.5t41 47t45.5 58.5t32.5 73q-35 3 -63.5 17.5t-49 37.5t-31.5 53.5 t-11 66.5zM121 860q0 37 13.5 69t38 55.5t57 37t71.5 13.5q38 0 70.5 -13.5t57.5 -37t38.5 -55.5t13.5 -69t-13.5 -69t-38.5 -55.5t-57.5 -37t-70.5 -13.5q-39 0 -71.5 13.5t-57 37t-38 55.5t-13.5 69z" />
<glyph unicode="&#x3c;" horiz-adv-x="1092" d="M155 753l882 434l-27 -220q-3 -24 -17.5 -44t-44.5 -34l-309 -157q-28 -14 -59 -24t-65 -18q33 -8 61 -16.5t53 -23.5l273 -157q42 -24 42 -65q0 -8 -1 -12l-29 -220l-775 433z" />
<glyph unicode="=" d="M143 611h928l-29 -219h-927zM190 983h926l-26 -220h-928z" />
<glyph unicode="&#x3e;" horiz-adv-x="1092" d="M984 630l-883 -434l28 220q3 24 17.5 43.5t43.5 34.5l310 156q28 14 59 24t65 18q-33 8 -61 17t-53 23l-273 158q-42 24 -42 64q0 8 1 13l28 220l775 -433z" />
<glyph unicode="?" horiz-adv-x="839" d="M141 1354q40 32 84.5 59.5t95 48.5t106.5 32.5t120 11.5q87 0 152.5 -24.5t109 -66t65 -96t21.5 -116.5q0 -87 -22 -147t-56.5 -103t-76 -74t-80.5 -61t-71 -63.5t-46 -80.5l-45 -146h-211v165q0 53 24 94.5t60.5 76.5t78.5 66t78 63t60 69.5t24 84.5q0 55 -27.5 88 t-95.5 33q-48 0 -82 -12t-59.5 -25.5t-45 -25.5t-38.5 -12q-20 0 -34.5 8.5t-22.5 28.5zM188 161q0 37 14 68.5t38 55t57 37.5t72 14q38 0 70.5 -14t57 -37.5t38.5 -55t14 -68.5t-14 -69.5t-38.5 -56t-57 -36.5t-70.5 -13q-39 0 -72 13t-57 36.5t-38 56t-14 69.5z" />
<glyph unicode="@" horiz-adv-x="1521" d="M1040 186q-29 0 -56.5 7t-50.5 21.5t-40 38t-27 57.5q-65 -67 -130 -95t-136 -28q-54 0 -94.5 19.5t-67 53.5t-40 80t-13.5 100q0 62 16.5 128.5t48.5 128t80.5 116t113 95.5t144.5 64.5t177 23.5q43 0 76.5 -3t63 -9t54.5 -14.5t51 -21.5l-141 -387q-14 -40 -21 -70 t-7 -52q0 -39 18.5 -54t48.5 -15q40 0 75.5 34t62 93t42 138t15.5 169q0 105 -28.5 186.5t-82 137.5t-132 84.5t-177.5 28.5q-134 0 -247 -57.5t-194.5 -158t-127.5 -237t-46 -293.5q0 -135 36 -238t102 -173t159 -105.5t209 -35.5q75 0 136.5 7.5t109.5 20t83.5 27 t57.5 29.5q17 10 32 13.5t28 3.5q27 0 41.5 -15.5t19.5 -35.5l23 -83q-51 -34 -111 -62.5t-129.5 -50t-147.5 -33.5t-165 -12q-162 0 -292 52.5t-222 148t-141.5 230.5t-49.5 301q0 127 31 246.5t86.5 224.5t134.5 192.5t174 150t205 97.5t229 35q127 0 238 -45t194 -126.5 t131 -197t48 -257.5q0 -128 -37 -240.5t-101.5 -196t-152 -132.5t-187.5 -49zM686 378q19 0 38 7t37.5 25t36.5 47t33 72l103 281q-22 3 -43 3q-49 0 -97.5 -28t-86 -75t-61 -109t-23.5 -129q0 -94 63 -94z" />
<glyph unicode="A" horiz-adv-x="1357" d="M1319 0h-258q-43 0 -69 20t-31 53l-47 268h-506l-111 -268q-11 -29 -44 -51t-73 -22h-262l713 1492h342zM501 568h375l-73 426q-9 53 -20 108t-18 100q-8 -25 -21.5 -56t-26 -60.5t-24.5 -55t-17 -38.5z" />
<glyph unicode="B" horiz-adv-x="1236" d="M45 0l184 1492h512q130 0 223 -24.5t152 -70t86 -109.5t27 -142q0 -61 -16 -118t-50.5 -105.5t-88.5 -87.5t-131 -66q121 -33 179 -102t58 -174q0 -103 -39.5 -193t-114.5 -156.5t-182 -105t-242 -38.5h-557zM457 637l-47 -386h219q61 0 103 18t68 50t38 75t12 94 q0 34 -8.5 62t-29.5 46.5t-55.5 29.5t-84.5 11h-215zM483 858h160q56 0 101.5 11.5t77.5 38.5t49.5 72t17.5 112q0 83 -43.5 117t-134.5 34h-181z" />
<glyph unicode="C" horiz-adv-x="1210" d="M694 258q56 0 98 8.5t71.5 22t50 29.5t37 29t30.5 22t31 9q16 0 27 -5.5t16 -13.5l116 -140q-97 -116 -230.5 -175.5t-303.5 -59.5q-141 0 -250 49.5t-184 136.5t-113.5 206.5t-38.5 257.5q0 128 29 242.5t81 212t125 175t162.5 132t191.5 83.5t214 29q84 0 153 -15.5 t125 -44t100 -67.5t77 -86l-117 -135q-12 -14 -28.5 -25.5t-43.5 -11.5q-17 0 -31.5 8.5t-29.5 20t-33 26t-44 26t-61 20t-83 8.5q-94 0 -175.5 -40t-141.5 -114t-94 -180t-34 -238q0 -95 23 -169.5t63 -126.5t95 -79t120 -27z" />
<glyph unicode="D" horiz-adv-x="1396" d="M1399 842q0 -122 -28 -231t-79 -203t-124 -169t-164 -128.5t-198 -82t-224 -28.5h-537l184 1492h537q146 0 263.5 -49.5t199.5 -136.5t126 -206t44 -258zM1057 834q0 91 -21 165t-62.5 126.5t-102 81t-138.5 28.5h-201l-118 -978h200q102 0 184.5 40.5t139.5 115 t88 181.5t31 240z" />
<glyph unicode="E" horiz-adv-x="1060" d="M1085 1235h-551l-46 -361h423l-32 -247h-421l-45 -370h556l-33 -257h-891l184 1492h889z" />
<glyph unicode="F" horiz-adv-x="1048" d="M1085 1235h-551l-50 -393h462l-35 -257h-458l-72 -585h-336l184 1492h889z" />
<glyph unicode="G" horiz-adv-x="1337" d="M727 241q61 0 110.5 10.5t94.5 30.5l29 243h-127q-29 0 -44.5 13.5t-15.5 35.5l23 193h497l-77 -624q-57 -42 -119 -72t-129 -49.5t-141 -28.5t-158 -9q-138 0 -252.5 50.5t-196 139.5t-126 211t-44.5 264q0 124 28.5 236t80.5 207.5t125 172t163 131t193 83.5t217 29 q95 0 172.5 -17t139 -46.5t109.5 -68t85 -79.5l-109 -134q-37 -45 -83 -45q-28 0 -56 19q-37 24 -68.5 41.5t-64 29.5t-68.5 18t-81 6q-97 0 -178.5 -41.5t-139.5 -117t-90.5 -181t-32.5 -232.5q0 -98 24 -176t68 -132t105.5 -82.5t136.5 -28.5z" />
<glyph unicode="H" horiz-adv-x="1425" d="M1255 0h-335l77 635h-538l-78 -635h-336l184 1492h336l-78 -630h539l78 630h336z" />
<glyph unicode="I" horiz-adv-x="606" d="M410 0h-336l182 1492h336z" />
<glyph unicode="J" horiz-adv-x="806" d="M705 536q-15 -125 -56.5 -226.5t-109 -174.5t-161 -112t-214.5 -39q-54 0 -106 6t-107 20l24 192q3 26 18 42.5t48 16.5q25 0 55.5 -5.5t67.5 -5.5q83 0 136 65t71 212l116 965h334z" />
<glyph unicode="K" horiz-adv-x="1351" d="M485 882h50q36 0 63.5 11.5t44.5 37.5l354 494q29 40 66 53.5t86 13.5h289l-469 -609q-24 -32 -49.5 -52.5t-53.5 -34.5q35 -14 61.5 -38.5t45.5 -65.5l315 -692h-297q-29 0 -48.5 4t-33.5 12t-23 19.5t-16 25.5l-231 525q-13 30 -38.5 41.5t-68.5 11.5h-76l-79 -639 h-332l182 1492h334z" />
<glyph unicode="L" horiz-adv-x="978" d="M412 266h501l-32 -266h-836l184 1492h334z" />
<glyph unicode="M" horiz-adv-x="1773" d="M850 655q22 -65 37 -132q16 34 34 67t37 65l457 786q20 35 51 43t60 8h262l-184 -1492h-293l104 868q3 28 10 61.5t15 68.5l-449 -770q-20 -35 -53 -51.5t-72 -16.5h-45q-39 0 -68 17.5t-40 50.5l-262 772q-2 -35 -4 -67.5t-5 -59.5l-102 -873h-295l184 1492h254 q22 0 38.5 -1t29 -5.5t22 -15t15.5 -29.5l262 -786v0z" />
<glyph unicode="N" horiz-adv-x="1425" d="M406 1492q22 0 36.5 -1.5t26 -7t21 -16t18.5 -26.5l523 -922q2 36 6 69t7 61l101 843h295l-185 -1492h-174q-39 0 -64.5 11.5t-43.5 43.5l-521 921q-2 -29 -5 -55.5t-5 -50.5l-102 -870h-295l184 1492h177v0z" />
<glyph unicode="O" horiz-adv-x="1499" d="M1503 842q0 -121 -28 -231.5t-80 -206t-125 -173t-164 -132.5t-197.5 -85t-224.5 -30q-147 0 -264.5 51.5t-199.5 141t-125.5 211t-43.5 261.5q0 121 28.5 232t80 206.5t125 173t165 132.5t198 85t224.5 30q146 0 263.5 -51.5t199 -141.5t125 -212t43.5 -261zM1161 834 q0 92 -22 167t-64.5 129t-104 83t-139.5 29q-102 0 -183 -42.5t-137.5 -119t-87 -185t-30.5 -239.5q0 -92 21.5 -166.5t63 -128t103 -82.5t140.5 -29q102 0 183.5 42t138.5 118.5t87.5 184.5t30.5 239z" />
<glyph unicode="P" horiz-adv-x="1208" d="M438 503l-61 -503h-332l182 1492h494q133 0 227.5 -32.5t155.5 -89t90 -134t29 -166.5q0 -122 -37.5 -226t-114.5 -179.5t-194.5 -118.5t-278.5 -43h-160zM530 1243l-60 -489h161q72 0 120.5 21t78.5 59t43.5 91.5t13.5 116.5q0 44 -12 81t-36.5 63.5t-62 41.5t-88.5 15 h-158z" />
<glyph unicode="Q" horiz-adv-x="1499" d="M1503 842q0 -114 -24.5 -218.5t-70.5 -196t-111.5 -168t-146.5 -132.5l298 -408h-274q-58 0 -105.5 14t-77.5 58l-144 208q-79 -15 -163 -15q-147 0 -264.5 51.5t-199.5 141t-125.5 211t-43.5 261.5q0 121 28.5 232t80 206.5t125 173t165 132.5t198 85t224.5 30 q146 0 263.5 -51.5t199 -141.5t125 -212t43.5 -261zM1161 834q0 92 -22 167t-64.5 129t-104 83t-139.5 29q-102 0 -183 -42.5t-137.5 -119t-87 -185t-30.5 -239.5q0 -92 21.5 -166.5t63 -128t103 -82.5t140.5 -29q102 0 183.5 42t138.5 118.5t87.5 184.5t30.5 239z" />
<glyph unicode="R" horiz-adv-x="1257" d="M445 557l-68 -557h-332l182 1492h453q137 0 234 -29t158.5 -80.5t89.5 -121.5t28 -152q0 -83 -22 -156.5t-64 -135.5t-103 -110t-139 -78q31 -17 58 -42t43 -62l217 -525h-301q-42 0 -71 16.5t-40 46.5l-162 442q-11 29 -30 40.5t-56 11.5h-75zM530 1243l-56 -456h122 q72 0 122 22t81 59t45 86.5t14 103.5q0 42 -12 76t-38.5 58.5t-66 37.5t-92.5 13h-119z" />
<glyph unicode="S" horiz-adv-x="1024" d="M965 1193q-17 -25 -35.5 -36t-42.5 -11t-47.5 15.5t-52.5 33.5t-67 33.5t-89 15.5q-47 0 -82.5 -13t-59 -37t-35.5 -55.5t-12 -69.5q0 -41 23 -68.5t61.5 -48.5t87 -38.5t99 -38t99 -47t87 -66.5t61.5 -96.5t23 -135.5q0 -113 -39 -212t-111.5 -173t-176.5 -117.5 t-234 -43.5q-65 0 -130 14t-124.5 40.5t-111 62t-87.5 79.5l119 156q13 17 34.5 28.5t43.5 11.5q29 0 56 -20t59.5 -44t76 -44t107.5 -20q93 0 143.5 50.5t50.5 150.5q0 46 -23 75.5t-60 50t-85.5 36.5t-98.5 34.5t-98 43.5t-85.5 65.5t-60.5 99t-23 144.5q0 99 37.5 191 t107 162.5t169 112.5t223.5 42q63 0 123 -13t112 -36.5t95 -56t73 -70.5z" />
<glyph unicode="T" horiz-adv-x="1130" d="M1235 1492l-35 -264h-379l-151 -1228h-332l149 1228h-381l33 264h1096z" />
<glyph unicode="U" horiz-adv-x="1366" d="M655 262q62 0 113.5 24t90.5 68.5t64.5 108t34.5 142.5l109 887h334l-109 -887q-17 -136 -72 -250t-142.5 -196.5t-203 -128.5t-253.5 -46q-125 0 -223 37.5t-165 107t-102 165.5t-35 212q0 48 6 99l107 887h334l-109 -887q-2 -18 -3 -36t-1 -35q0 -127 57.5 -199.5 t167.5 -72.5z" />
<glyph unicode="V" horiz-adv-x="1400" d="M121 1492h268q43 0 68.5 -20.5t31.5 -52.5l156 -822q9 -50 22 -113t21 -128q22 65 49.5 127t48.5 114l349 822q6 13 17 26.5t27 24t35 16.5t39 6h271l-733 -1492h-304z" />
<glyph unicode="W" horiz-adv-x="2027" d="M131 1492h262q43 0 69 -20t32 -53l104 -804q4 -29 6 -59t4 -54q2 -30 2 -58q15 48 32 91t32 80l305 804q11 28 43 50.5t74 22.5h78q43 0 70 -20t32 -53l115 -804q5 -36 10.5 -78t9.5 -88q13 46 26.5 88t26.5 78l295 804q10 29 43.5 51t75.5 22h264l-608 -1492h-303 l-137 942q-3 23 -7.5 50t-7.5 57q-11 -30 -21.5 -57t-19.5 -50l-364 -942h-301z" />
<glyph unicode="X" horiz-adv-x="1355" d="M483 796l-323 696h303q33 0 46.5 -8.5t22.5 -29.5l197 -471q5 10 11 19.5t14 20.5l262 426q14 24 31 33.5t40 9.5h351l-497 -680l359 -812h-299q-33 0 -51 16.5t-26 36.5l-221 548q-4 -7 -8.5 -13t-8.5 -13l-330 -522q-19 -30 -44.5 -41.5t-55.5 -11.5h-334z" />
<glyph unicode="Y" horiz-adv-x="1286" d="M818 571l-70 -571h-334l70 568l-384 924h297q43 0 67 -20t36 -53l143 -451q14 -45 26 -87t20 -81q19 39 43 80.5t50 87.5l254 451q15 28 45 50.5t72 22.5h277z" />
<glyph unicode="Z" horiz-adv-x="1146" d="M1241 1492l-14 -100q-3 -20 -13 -39t-22 -36l-754 -1060h631l-33 -257h-1065l13 98q3 20 12.5 39t21.5 36l755 1062h-597l33 257h1032z" />
<glyph unicode="[" horiz-adv-x="565" d="M-23 -328l236 1920h430l-14 -116q-4 -30 -29.5 -51.5t-58.5 -21.5h-96l-190 -1540h99q31 0 50 -19t19 -47q0 -1 -0.5 -4t-2 -14.5t-4.5 -37t-8 -69.5h-431z" />
<glyph unicode="\" horiz-adv-x="765" d="M102 1494h129q54 0 90.5 -27.5t51.5 -76.5l332 -1493h-130q-48 0 -89.5 28t-55.5 82z" />
<glyph unicode="]" horiz-adv-x="565" d="M-31 -212q5 31 29 53t57 22h98l190 1540h-99q-32 0 -51.5 18.5t-19.5 44.5q0 2 0.5 5t0.5 5l16 116h431l-238 -1920h-430z" />
<glyph unicode="^" d="M1141 786h-234q-28 0 -46 14t-30 36l-126 242q-17 33 -32.5 62.5t-26.5 59.5q-10 -30 -23.5 -59.5t-30.5 -62.5l-123 -242q-11 -20 -30 -35t-50 -15h-246l396 706h206z" />
<glyph unicode="_" horiz-adv-x="743" d="M668 -117l-25 -190h-743l24 190h744z" />
<glyph unicode="`" horiz-adv-x="626" d="M285 1506q45 0 66 -14.5t32 -44.5l96 -251h-174q-34 0 -54 9t-38 32l-215 269h287z" />
<glyph unicode="a" horiz-adv-x="1083" d="M919 0h-170q-30 0 -50 7.5t-32 21t-16.5 32t-4.5 39.5v76q-66 -90 -145.5 -141t-175.5 -51q-57 0 -110.5 23t-94.5 69.5t-65.5 118.5t-24.5 171q0 144 52.5 273.5t147.5 227t225 154.5t285 57q76 0 154 -10t154 -37zM452 234q35 0 67.5 26.5t61.5 71.5t53.5 105.5 t42.5 128.5l37 294h-19q-78 0 -142 -34.5t-110 -94.5t-71 -139.5t-25 -169.5q0 -51 8.5 -87t22 -58t32.5 -32.5t42 -10.5z" />
<glyph unicode="b" horiz-adv-x="1126" d="M44 0l186 1533h312l-79 -638q71 86 154 134.5t177 48.5q66 0 120 -23t93.5 -72t61.5 -125.5t22 -181.5q0 -139 -42.5 -264.5t-114.5 -221t-165.5 -151t-196.5 -55.5q-79 0 -138.5 30t-101.5 79l-3 -10q-14 -43 -37 -63t-74 -20h-174zM667 838q-34 0 -70.5 -26t-70 -70.5 t-63 -104t-48.5 -127.5l-31 -248q30 -25 66.5 -35t70.5 -10q55 0 102 37t80.5 97t52.5 136.5t19 156.5q0 101 -29.5 147.5t-78.5 46.5z" />
<glyph unicode="c" horiz-adv-x="897" d="M876 186q-51 -56 -98.5 -95t-97.5 -62.5t-107 -34t-126 -10.5q-93 0 -167.5 31.5t-127.5 90t-81.5 141.5t-28.5 186q0 130 42.5 247t119 205t180.5 139.5t229 51.5q106 0 182.5 -36t137.5 -114l-103 -118q-11 -11 -25 -20t-32 -9q-20 0 -34 9t-30.5 18.5t-40 18.5 t-61.5 9q-47 0 -91.5 -27.5t-79.5 -78.5t-56 -126t-21 -170q0 -53 12.5 -92.5t34 -65.5t50 -39.5t61.5 -13.5q49 0 79.5 14t53 30.5t42 30t46.5 13.5q15 0 30 -7t26 -19l82 -97v0z" />
<glyph unicode="d" horiz-adv-x="1128" d="M783 0q-30 0 -49.5 7.5t-31.5 21t-16.5 32t-4.5 39.5v89q-73 -96 -161 -150.5t-187 -54.5q-66 0 -120 23t-93.5 72t-61.5 125.5t-22 182.5q0 92 19.5 179.5t54 164.5t83 141t106 109.5t122 71t133.5 25.5q66 0 118.5 -22t92.5 -58l68 535h311l-191 -1533h-170zM460 225 q33 0 68 24.5t68.5 67.5t62 101t49.5 125l32 258q-30 24 -66 34t-69 10q-55 0 -101.5 -37t-80.5 -97t-53 -136.5t-19 -156.5q0 -101 30 -147t79 -46z" />
<glyph unicode="e" horiz-adv-x="991" d="M974 801q0 -73 -29 -133.5t-100 -107t-191 -79t-303 -51.5q2 -109 47.5 -159t135.5 -50q42 0 72.5 7.5t53.5 18.5t41.5 23.5t35.5 23.5t35.5 18t41.5 7q15 0 29.5 -7.5t25.5 -19.5l82 -95q-56 -55 -110 -96t-110.5 -67t-120.5 -38t-140 -12q-94 0 -173 32t-136 91 t-88 142t-31 184q0 85 19 166t54.5 152t86.5 131t115 103t140.5 67t162.5 24q85 0 151 -24.5t111 -64t68.5 -88.5t23.5 -98zM601 862q-79 0 -138.5 -63t-88.5 -172q99 15 160.5 32t95.5 37t45.5 43t11.5 49q0 27 -20.5 50.5t-65.5 23.5z" />
<glyph unicode="f" horiz-adv-x="679" d="M496 843l-96 -792l-55 -178q-18 -59 -56 -92t-108 -33h-129l132 1096l-62 14q-27 6 -45 22t-18 44q0 7 1 11l17 125h134l7 60q11 91 50 165t99.5 126t140 81t171.5 29q36 0 66 -5t61 -15l-29 -160q-5 -27 -28.5 -35t-47.5 -8q-79 0 -125.5 -42t-58.5 -146l-6 -50h215 l-29 -217h-201z" />
<glyph unicode="g" horiz-adv-x="1032" d="M923 744q0 -66 -18 -111.5t-39.5 -86.5t-39.5 -84t-18 -102q0 -42 14 -77t30 -72t30 -78t14 -94q0 -82 -36 -155t-103.5 -128t-166 -87.5t-224.5 -32.5q-103 0 -185.5 21.5t-139 58.5t-87.5 88t-31 109q0 90 45.5 150t117.5 96.5t159 51t170 14.5q47 0 89.5 -4t78.5 -11 q-2 12 -2 25v27q0 54 27 124q-40 -27 -91.5 -42t-128.5 -15q-60 0 -115.5 20t-98 61t-68 102.5t-25.5 146.5q0 79 30 154.5t90 134.5t148.5 94.5t206.5 35.5q60 0 116 -13.5t103 -41.5h305l-14 -99q-9 -62 -59 -79l-91 -31q7 -34 7 -70zM480 513q38 0 66 19.5t47 50.5t29 70 t10 79q0 67 -27.5 103.5t-85.5 36.5q-38 0 -66 -17.5t-46.5 -47.5t-27.5 -69t-9 -81q0 -68 27.5 -106t82.5 -38zM607 14v12.5t-1 11.5q-52 8 -95.5 12t-79.5 4q-55 0 -94.5 -8t-64.5 -22t-36.5 -33t-11.5 -39q0 -52 38.5 -79t129.5 -27q47 0 87 12.5t68 34.5t44 52.5 t16 68.5z" />
<glyph unicode="h" horiz-adv-x="1134" d="M44 0l186 1533h318l-75 -610q73 80 154 117.5t167 37.5q59 0 109.5 -21.5t86.5 -63t56.5 -102t20.5 -138.5q0 -18 -1.5 -38t-3.5 -40l-80 -675h-317l79 675q2 16 3.5 30t1.5 26q0 55 -19.5 76.5t-58.5 21.5q-32 0 -67 -18.5t-67 -53.5t-60 -84t-47 -110l-69 -563h-317z " />
<glyph unicode="i" horiz-adv-x="552" d="M497 1062l-127 -1062h-314l127 1062h314zM556 1353q0 -38 -16.5 -71.5t-43 -58.5t-61 -40t-69.5 -15q-36 0 -69 15t-58 40t-40.5 58.5t-15.5 71.5t15.5 71.5t41.5 59t59 40.5t69 15q37 0 70.5 -14.5t59.5 -40t42 -59t16 -72.5z" />
<glyph unicode="j" horiz-adv-x="546" d="M499 1062l-129 -1064q-9 -75 -37.5 -141t-77 -115.5t-118 -78.5t-161.5 -29q-45 0 -76.5 5t-64.5 14l31 167q4 22 18 32t47 10t55 6t36.5 21.5t22.5 41.5t13 67l129 1064h312zM546 1353q0 -38 -16.5 -71.5t-43 -58.5t-61 -40t-70.5 -15t-68.5 15t-57.5 40t-40.5 58.5 t-15.5 71.5t15.5 71.5t41.5 59t59 40.5t68 15q37 0 71 -14.5t60 -40t42 -59t16 -72.5z" />
<glyph unicode="k" horiz-adv-x="1099" d="M550 1533l-106 -859h22q27 0 43 8t33 30l219 299q19 27 42.5 39t57.5 12h285l-297 -378q-20 -27 -45 -47.5t-51 -35.5q22 -17 37.5 -40t27.5 -53l213 -508h-276q-34 0 -56 12t-34 41l-148 376q-11 26 -24 33.5t-41 7.5h-33l-58 -470h-313l189 1533h313z" />
<glyph unicode="l" horiz-adv-x="532" d="M44 0l186 1533h314l-187 -1533h-313z" />
<glyph unicode="m" horiz-adv-x="1632" d="M36 0l129 1062h164q49 0 76.5 -23t27.5 -75v-63q68 90 142.5 133.5t156.5 43.5q90 0 149.5 -58t75.5 -170q71 118 155 173t190 55q59 0 107.5 -21t83 -62t53.5 -100t19 -137q0 -19 -1.5 -40.5t-3.5 -42.5l-80 -675h-314l80 675q2 17 3 31.5t1 27.5q0 52 -16 72.5 t-49 20.5q-32 0 -61 -16.5t-55.5 -49t-48 -78t-37.5 -101.5l-69 -582h-313l80 675q2 17 3 31.5t1 27.5q0 52 -16.5 72.5t-48.5 20.5t-62 -17t-56 -50t-47.5 -79.5t-37.5 -103.5l-70 -577h-311z" />
<glyph unicode="n" horiz-adv-x="1126" d="M656 0l80 675q2 16 3 30t1 26q0 54 -19 75t-56 21q-35 0 -73 -21.5t-72.5 -60t-63 -94.5t-44.5 -124l-59 -527h-317l127 1062h164q49 0 76.5 -23t27.5 -75v-85q77 102 168 150.5t188 48.5q59 0 109 -21.5t86 -63t56.5 -102t20.5 -138.5q0 -18 -1.5 -38t-3.5 -40l-80 -675 h-318z" />
<glyph unicode="o" horiz-adv-x="1058" d="M482 219q53 0 95.5 32.5t71.5 88t45 130t16 158.5q0 116 -31.5 165.5t-101.5 49.5q-53 0 -95.5 -32.5t-71.5 -87.5t-45 -130t-16 -159q0 -114 31 -164.5t102 -50.5zM454 -16q-89 0 -166.5 29.5t-134.5 86.5t-89 140.5t-32 191.5q0 141 46.5 259.5t125.5 204.5t182.5 134 t218.5 48q89 0 166 -29.5t134 -86.5t89.5 -140.5t32.5 -191.5q0 -139 -46.5 -257.5t-125.5 -205t-182.5 -135t-218.5 -48.5z" />
<glyph unicode="p" horiz-adv-x="1107" d="M-5 -337l170 1399h164q49 0 76.5 -23t27.5 -75v-97q73 98 162 154.5t190 56.5q66 0 120 -23t93.5 -72t61.5 -125.5t22 -181.5q0 -139 -42.5 -264.5t-114 -221t-165 -151t-196.5 -55.5q-67 0 -119 21.5t-92 56.5l-49 -399h-309zM658 838q-33 0 -68.5 -25.5t-69 -69 t-62.5 -101.5t-48 -125l-32 -256q30 -24 66 -34t69 -10q55 0 102 37t80.5 97t52.5 136.5t19 156.5q0 101 -30 147.5t-79 46.5z" />
<glyph unicode="q" horiz-adv-x="1083" d="M876 -337h-209q-27 0 -44.5 9t-28.5 22t-16 29.5t-5 32.5q0 10 1 16l49 373q-62 -77 -136.5 -119t-161.5 -42q-57 0 -110.5 23t-94.5 69.5t-65.5 118.5t-24.5 171q0 144 52.5 273.5t147.5 227t225 154.5t285 57q76 0 154 -10t154 -37zM452 234q34 0 66.5 26.5t61.5 71 t53.5 104.5t42.5 127l38 297h-19q-78 0 -142 -34.5t-110 -94.5t-71 -139.5t-25 -169.5q0 -51 8.5 -87t22 -58t32.5 -32.5t42 -10.5z" />
<glyph unicode="r" horiz-adv-x="768" d="M36 0l129 1062h164q49 0 76.5 -23t27.5 -75v-121q61 109 133 167t149 58q43 0 85 -19l-58 -294q-52 23 -99 22q-79 0 -140 -71t-99 -229l-57 -477h-311z" />
<glyph unicode="s" horiz-adv-x="808" d="M761 839q-14 -18 -26.5 -26.5t-33.5 -8.5q-20 0 -40 9t-43 21t-52 21t-67 9q-71 0 -101 -27t-30 -70q0 -28 16.5 -47.5t44.5 -34.5t63 -28t72 -29t72.5 -36.5t63 -50t44.5 -70.5t17 -97q0 -80 -32 -151t-91 -124t-143.5 -84t-190.5 -31q-50 0 -99 10t-92.5 27.5 t-79.5 41.5t-59 52l78 116q14 20 33 32t47 12q26 0 44.5 -12t40 -26.5t51 -26.5t77.5 -12q68 0 100.5 30t32.5 71q0 32 -17 52.5t-44.5 35t-62.5 26.5t-71.5 26.5t-71.5 33.5t-62.5 47.5t-44.5 70.5t-17 101q0 74 27 143.5t81 123.5t134 86.5t186 32.5t189.5 -36.5 t138.5 -90.5z" />
<glyph unicode="t" horiz-adv-x="747" d="M138 229v17.5t1.5 29.5t5 50t10.5 83l54 434h-85q-19 0 -32.5 12.5t-13.5 38.5q0 1 2 18t4 36t4 35t2 18l3 28l161 33l89 259q15 49 70 49h172l-39 -310h237l-26 -217h-238l-51 -417q-5 -42 -7.5 -66t-4 -37t-2 -17.5t-0.5 -5.5q0 -30 13.5 -50t43.5 -20q16 0 27 4 t19 8.5t15.5 8t16.5 3.5q14 0 21 -6.5t14 -21.5l69 -150q-63 -46 -136 -69t-146 -23q-61 0 -110.5 16.5t-85 49t-55.5 77.5t-22 102z" />
<glyph unicode="u" horiz-adv-x="1124" d="M470 1062l-80 -674q-2 -16 -3 -30t-1 -26q0 -54 19 -76t57 -22q32 0 67 19t68 53.5t61 83.5t47 110l68 562h318l-129 -1062h-162q-113 0 -113 104v68q-77 -96 -165 -142t-183 -46q-59 0 -109 21.5t-86 63t-56 102t-20 139.5q0 18 1.5 38t3.5 40l80 674h317z" />
<glyph unicode="v" horiz-adv-x="1056" d="M65 1062h262q33 0 52 -16t23 -39l70 -477q9 -60 15.5 -118t10.5 -116q18 57 40 114.5t47 119.5l186 477q9 25 32.5 40t51.5 15h252l-516 -1062h-268z" />
<glyph unicode="w" horiz-adv-x="1546" d="M75 1062h243q31 0 52.5 -15.5t23.5 -39.5l31 -477q0 -4 0.5 -7.5t0.5 -7.5q3 -49 5 -95t3 -92q18 49 39.5 99t41.5 103l178 478q8 24 32.5 39.5t51.5 15.5h137q33 0 53 -16t23 -39l62 -478q7 -52 13.5 -102t11.5 -99q14 49 30.5 98t34.5 103l149 477q8 24 31.5 39.5 t50.5 15.5h234l-432 -1062h-248q-18 0 -30 12.5t-17 40.5l-78 530q-3 23 -5.5 44.5t-4.5 44.5q-8 -24 -17.5 -46.5t-17.5 -44.5l-203 -528q-22 -53 -68 -53h-237z" />
<glyph unicode="x" horiz-adv-x="1095" d="M354 575l-238 487h291q31 0 44.5 -8t22.5 -29l118 -273q7 13 15 25.5t17 25.5l139 216q27 43 67 43h289l-368 -485l264 -577h-291q-31 0 -49 16.5t-27 38.5l-132 325q-5 -11 -11 -21.5t-12 -18.5l-189 -285q-14 -22 -34 -38.5t-50 -16.5h-280z" />
<glyph unicode="y" horiz-adv-x="1056" d="M431 -276q-16 -32 -40 -46.5t-58 -14.5h-238l243 432l-263 967h268q34 0 51 -16.5t23 -38.5l92 -458q6 -30 11 -59t8 -59q12 30 26.5 60t28.5 60l196 456q12 24 36 39.5t48 15.5h256z" />
<glyph unicode="z" horiz-adv-x="913" d="M910 935q-4 -33 -18.5 -62.5t-32.5 -51.5l-459 -585h418l-28 -236h-795l16 129q2 19 16.5 48.5t34.5 55.5l463 593h-403l29 236h776z" />
<glyph unicode="{" horiz-adv-x="565" d="M98 442q0 46 -19 75.5t-65 29.5l23 171q38 0 61.5 16.5t36.5 48.5t18 81t5 115q0 11 -0.5 28.5t-0.5 36.5t-0.5 36.5t-0.5 29.5q0 117 25.5 206.5t79 151t137.5 93t200 31.5h47l-16 -133q-2 -15 -10 -25.5t-18 -17.5t-21 -10t-19 -3q-58 0 -89 -42t-40 -116 q-7 -56 -9 -105.5t-3.5 -96.5t-3 -91.5t-6.5 -90.5q-5 -39 -19.5 -75t-37.5 -67t-54.5 -53.5t-71.5 -34.5q65 -23 96 -76t31 -118q0 -58 -11.5 -114t-26 -111t-26 -111.5t-11.5 -116.5q0 -55 22.5 -88t71.5 -33q16 0 34.5 -13t18.5 -39q0 -7 -2 -27t-5 -42t-5.5 -41.5 t-3.5 -28.5h-50q-91 0 -157 22t-108.5 62.5t-62.5 97t-20 123.5q0 66 13.5 126t30 116t29.5 111.5t13 111.5z" />
<glyph unicode="|" horiz-adv-x="614" d="M123 1594h246v-1931h-246v1931z" />
<glyph unicode="}" horiz-adv-x="565" d="M440 155q0 -117 -25.5 -206.5t-79 -151t-137 -93.5t-198.5 -32h-49l18 131q5 31 29 45.5t41 14.5q57 1 87.5 42.5t39.5 113.5q7 55 9.5 105t3.5 96.5t2.5 91t6.5 89.5q4 39 18.5 75.5t37.5 67t54.5 53.5t70.5 35q-65 23 -96 76.5t-31 119.5q0 57 12 112.5t26.5 111 t26.5 112.5t12 117q0 54 -22 87.5t-70 34.5q-8 0 -17.5 2.5t-18 8.5t-14 15.5t-5.5 22.5q0 1 2 17.5t4 36.5t4 37t2 18l4 31h50q90 0 155.5 -22t108 -62.5t62.5 -97t20 -125.5q0 -65 -13.5 -124.5t-29 -116t-28.5 -111.5t-13 -111q0 -46 18 -75t64 -29l-21 -171 q-38 0 -61.5 -16t-36.5 -48.5t-18 -82t-5 -115.5v-130z" />
<glyph unicode="~" d="M686 693q49 0 75.5 32t26.5 93h256q0 -87 -23 -156.5t-66 -118t-106 -75t-142 -26.5q-54 0 -102 12t-89 27t-75 26.5t-62 11.5q-49 0 -76 -31.5t-27 -93.5h-256q0 87 23.5 157t66.5 118.5t106 74.5t142 26q54 0 102 -12t89 -26.5t75 -26.5t62 -12z" />
<glyph unicode="&#xa1;" horiz-adv-x="714" d="M113 -339l67 542q11 94 34 186.5t52 189.5h209q2 -39 3.5 -76.5t1.5 -75.5q0 -56 -3 -112t-10 -112l-66 -542h-288zM227 903q0 37 14 69t38 55.5t57 37t72 13.5q38 0 70.5 -13.5t57 -37t38.5 -55.5t14 -69t-14 -69t-38.5 -55.5t-57.5 -37t-70 -13.5q-39 0 -72 13.5 t-57 37t-38 55.5t-14 69z" />
<glyph unicode="&#xa2;" d="M472 -7q-79 15 -144.5 53.5t-113.5 97.5t-74.5 137.5t-26.5 175.5q0 126 40.5 235.5t117 192t187.5 132.5t253 56l32 148q3 13 11.5 26t20 23t26.5 16.5t33 6.5h112l-52 -234q77 -16 137.5 -50.5t109.5 -86.5l-92 -105q-14 -17 -28 -25t-38 -8q-15 0 -29 5.5t-30.5 13.5 t-35.5 16.5t-43 17.5l-138 -628q47 6 79.5 19.5t57.5 27t45.5 24.5t44.5 11q39 0 53 -24l72 -105q-45 -44 -94.5 -75.5t-100.5 -52t-103 -31.5t-104 -15l-28 -132q-6 -29 -31.5 -51.5t-58.5 -22.5h-113zM414 471q0 -87 28 -147.5t83 -90.5l135 614q-65 -11 -111.5 -42 t-76.5 -79.5t-44 -113t-14 -141.5z" />
<glyph unicode="&#xa3;" d="M951 678q-2 -13 -9.5 -26.5t-20 -24t-28 -16.5t-34.5 -6h-350l-20 -169q-8 -65 -29.5 -115.5t-60.5 -94.5q50 11 100 18t99 7h530l-16 -123q-3 -23 -15.5 -45.5t-31 -40.5t-44.5 -30t-54 -12h-979l24 184q70 14 106.5 54t45.5 116l31 251h-150l15 120q2 13 10 26t20 23 t28 17t35 7h65l28 226q12 97 55.5 184.5t115.5 153.5t171.5 105t222.5 39q90 0 157.5 -20.5t118 -56t84 -86.5t56.5 -110l-133 -79q-17 -11 -36 -14.5t-36 -3.5q-47 0 -78 36q-18 23 -34 39.5t-34 26.5t-41 14.5t-55 4.5q-88 0 -148 -59.5t-73 -171.5l-28 -228h435l-15 -120 v0z" />
<glyph unicode="&#xa4;" d="M244 690q0 50 11.5 96.5t33.5 86.5l-158 157l160 152l153 -152q42 23 89.5 35t99.5 12q49 0 94.5 -11.5t86.5 -33.5l157 156l157 -154l-156 -154q24 -42 37 -90t13 -100q0 -50 -12 -96t-34 -87l159 -156l-160 -152l-155 151q-42 -23 -89 -35t-98 -12q-49 0 -94.5 11.5 t-86.5 31.5l-157 -153l-158 153l156 154q-24 42 -36.5 90t-12.5 100zM477 690q0 -33 12.5 -62.5t33.5 -52t49 -35.5t61 -13t61.5 13t50 35.5t34 52t12.5 62.5q0 35 -12.5 64.5t-34 52t-50 35.5t-61.5 13t-61 -13t-49 -35.5t-33.5 -52t-12.5 -64.5z" />
<glyph unicode="&#xa5;" d="M145 652h259l-298 838h256q42 0 67 -20t34 -53l127 -449q14 -52 24.5 -96.5t15.5 -87.5q14 43 35 87t48 97l231 449q14 29 44.5 51t72.5 22h258l-507 -838h261l-20 -164h-311l-11 -90h309l-20 -162h-309l-29 -236h-305l29 236h-314l23 162h310l11 90h-311z" />
<glyph unicode="&#xa6;" horiz-adv-x="614" d="M123 1594h246v-838h-246v838zM123 502h246v-839h-246v839z" />
<glyph unicode="&#xa7;" horiz-adv-x="956" d="M881 1262q-14 -19 -28.5 -27.5t-35.5 -8.5q-22 0 -41.5 9.5t-42.5 22t-51 22t-66 9.5q-36 0 -62 -8.5t-42.5 -24t-25.5 -36t-9 -42.5q0 -35 33.5 -60.5t83.5 -51t108.5 -53t108.5 -65t83.5 -88.5t33.5 -124q0 -90 -43 -166t-141 -125q31 -33 50 -75t19 -98 q0 -84 -30.5 -155.5t-89.5 -124t-145 -82.5t-198 -30q-50 0 -99.5 10t-94 27t-82 41t-62.5 51l86 114q14 20 33.5 30.5t48.5 10.5q26 0 45 -12.5t41.5 -26.5t54 -26.5t82.5 -12.5q63 0 99.5 30t36.5 86q0 45 -33.5 74.5t-83.5 53t-108.5 47.5t-108.5 59.5t-83.5 88 t-33.5 131.5q0 93 46 166.5t139 116.5q-32 36 -51 82t-19 109q0 75 27.5 142.5t83 119.5t136.5 82t189 30q53 0 102 -10t90 -28t74.5 -43t57.5 -54zM367 731q0 -33 20 -58t52.5 -46t73.5 -40.5t84 -40.5q30 20 42 47t12 57q0 34 -19.5 59t-51.5 45.5t-73 39.5t-84 41 q-31 -20 -43.5 -45.5t-12.5 -58.5z" />
<glyph unicode="&#xa8;" horiz-adv-x="626" d="M385 1349q0 -33 -13.5 -62t-36.5 -49.5t-53 -33t-65 -12.5q-33 0 -62 12.5t-51 33t-35.5 49.5t-13.5 62q0 34 13.5 63.5t35.5 51.5t51 34.5t62 12.5q35 0 65 -12.5t53 -34.5t36.5 -51.5t13.5 -63.5zM780 1349q0 -33 -12.5 -62t-35 -49.5t-53 -33t-65.5 -12.5 q-34 0 -63.5 12.5t-52 33t-35 49.5t-12.5 62q0 34 12.5 63.5t35 51.5t52.5 34.5t63 12.5q35 0 65.5 -12.5t53 -34.5t35 -51.5t12.5 -63.5z" />
<glyph unicode="&#xa9;" horiz-adv-x="1607" d="M1038 555q12 0 23.5 -6t19.5 -15l105 -108q-55 -77 -145 -116.5t-207 -39.5q-103 0 -187 37.5t-142.5 102.5t-90 152t-31.5 188q0 104 37 191.5t101 151.5t150 99.5t185 35.5q118 0 203 -41t137 -103l-84 -111q-7 -9 -20 -19.5t-33 -10.5t-35 9.5t-33.5 20.5t-45.5 20 t-73 9q-103 0 -155.5 -68t-52.5 -184q0 -61 13.5 -108.5t38 -79.5t59 -48t75.5 -16q48 0 76 8.5t46.5 19t32 19.5t33.5 10zM72 746q0 105 27 203t76.5 182t119.5 154t155 119.5t181.5 76.5t202.5 27q105 0 203 -27t182.5 -76.5t154.5 -119.5t119.5 -154t76.5 -181.5 t27 -203.5q0 -104 -27 -201.5t-76.5 -181.5t-119.5 -154t-154.5 -119.5t-182.5 -76.5t-203 -27t-202 27t-182 76.5t-155 119.5t-119.5 154t-76.5 181t-27 202zM242 746q0 -130 45.5 -242.5t125.5 -196t188 -131t233 -47.5q126 0 235 47.5t189.5 131t127 196t46.5 242.5 q0 87 -21 167t-59.5 149.5t-93 126t-121 96.5t-143 62t-160.5 22q-125 0 -233 -48t-188 -132.5t-125.5 -198.5t-45.5 -244z" />
<glyph unicode="&#xaa;" horiz-adv-x="667" d="M555 862q-30 0 -44.5 8t-23.5 33l-8 28q-24 -19 -45 -33.5t-43 -24.5t-46 -14.5t-54 -4.5q-79 0 -121.5 40t-42.5 112q0 37 15 76.5t55 73.5t111 57.5t184 26.5l2 18q0 15 -1 31t-6.5 27.5t-16 19t-30.5 7.5q-28 0 -45.5 -6.5t-33 -14t-31.5 -13.5t-39 -6q-24 0 -37 11.5 t-21 26.5l-30 69q63 54 135.5 78t150.5 24q49 0 89 -17t69 -48t45 -72.5t16 -88.5v-13.5t-1 -14.5l-50 -396h-102zM381 997q24 0 43.5 9.5t43.5 31.5l8 73q-43 -2 -69.5 -8.5t-42 -17.5t-21 -24.5t-5.5 -29.5q0 -18 9.5 -26t33.5 -8z" />
<glyph unicode="&#xab;" horiz-adv-x="987" d="M114 538l6 37l299 410l94 -45q39 -18 39 -53q0 -14 -6 -28.5t-17 -31.5l-135 -224q-9 -15 -19.5 -27t-22.5 -20q8 -9 16.5 -20.5t13.5 -25.5l82 -224q4 -11 6.5 -21.5t2.5 -20.5q0 -48 -54 -73l-107 -45zM460 538l6 37l299 410l94 -45q39 -18 39 -53q0 -14 -6 -28.5 t-16 -31.5l-136 -224q-9 -15 -19.5 -27t-22.5 -20q8 -9 16.5 -20.5t13.5 -25.5l82 -224q4 -11 6.5 -21.5t2.5 -20.5q0 -48 -54 -73l-107 -45z" />
<glyph unicode="&#xac;" d="M166 798h928l-64 -505h-258l36 286h-669z" />
<glyph unicode="&#xad;" horiz-adv-x="702" d="M125 745h514l-33 -247h-512z" />
<glyph unicode="&#xae;" horiz-adv-x="1607" d="M66 746q0 105 27 203t76.5 182t119 154t154.5 119.5t182 76.5t202 27t203 -27t182.5 -76.5t155 -119.5t120 -154t76.5 -181.5t27 -203.5q0 -104 -27 -201.5t-76.5 -181.5t-120 -154t-155 -119.5t-182 -76.5t-203.5 -27q-105 0 -202 27t-182 76.5t-154.5 119.5t-119 154 t-76.5 181t-27 202zM236 746q0 -130 45.5 -242.5t125 -196t187.5 -131t233 -47.5q118 0 221 42t183 117h-221q-56 0 -78 40l-94 236q-8 18 -22.5 25.5t-39.5 7.5h-33v-309h-274v922h360q102 0 176.5 -18t122.5 -53t70.5 -86.5t22.5 -116.5q0 -43 -10.5 -82.5t-31.5 -72.5 t-54 -60t-79 -44q30 -15 50 -39.5t37 -57.5l127 -264q78 83 121.5 192.5t43.5 237.5q0 87 -21 167t-59 149.5t-92.5 126t-121 96.5t-143.5 62t-161 22q-125 0 -233 -48t-187.5 -132.5t-125 -198.5t-45.5 -244zM743 785h66q49 0 77 8t42.5 22t18 36t3.5 50q0 27 -3.5 47 t-15.5 33.5t-36.5 21t-65.5 7.5h-86v-225z" />
<glyph unicode="&#xaf;" horiz-adv-x="626" d="M135 1420h588l-25 -188h-587z" />
<glyph unicode="&#xb0;" horiz-adv-x="813" d="M115 1146q0 76 28.5 142.5t78.5 115.5t118.5 77.5t146.5 28.5q79 0 147.5 -28.5t119.5 -77.5t79.5 -115.5t28.5 -142.5q0 -74 -28.5 -140t-79.5 -115t-119.5 -78.5t-147.5 -29.5t-147 29.5t-118 78.5t-78.5 115t-28.5 140zM334 1144q0 -34 11 -63t31.5 -51t49 -34.5 t61.5 -12.5q34 0 62.5 12.5t48.5 34.5t31.5 51t11.5 63q0 35 -11.5 65t-31.5 52t-48.5 35t-62.5 13t-62 -13t-48.5 -35t-31.5 -52t-11 -65z" />
<glyph unicode="&#xb1;" d="M815 1296l-43 -348h383l-29 -219h-381l-40 -332h-248l41 332h-381l26 219h381l43 348h248zM63 302h1012l-28 -220h-1010z" />
<glyph unicode="&#xb2;" horiz-adv-x="684" d="M504 1696q59 0 103.5 -16.5t74 -44t43.5 -64.5t14 -78q0 -47 -15 -86t-41.5 -73.5t-60 -66t-69.5 -64.5l-124 -112q35 10 68 15.5t60 5.5h82q32 0 47.5 -15t15.5 -40q0 -5 -2.5 -26t-4.5 -46q-4 -29 -7 -63h-579l10 68q3 19 13.5 42t31.5 41l229 202q26 23 48 48.5t39 51 t26.5 50t9.5 45.5q0 24 -10 40.5t-35 16.5q-24 0 -38.5 -11.5t-31.5 -35.5q-14 -22 -31.5 -33t-44.5 -11q-13 0 -30 3l-119 19q34 123 121 180.5t207 57.5z" />
<glyph unicode="&#xb3;" horiz-adv-x="684" d="M526 1696q58 0 102 -16.5t73 -42.5t44 -59.5t15 -67.5q0 -68 -26.5 -112.5t-94.5 -71.5q46 -18 69 -50t23 -83q0 -74 -28.5 -126.5t-73 -87t-100.5 -50.5t-109 -16t-96 9.5t-77 33t-58 64t-37 103.5l100 39q25 9 48 9t38.5 -8t21.5 -24q9 -26 28 -38t42 -12 q37 0 59.5 22.5t22.5 64.5q0 39 -28 51t-97 12l19 147q41 0 68 4.5t42.5 14t22 25.5t6.5 39t-11 38.5t-40 15.5q-28 0 -43 -10.5t-27 -30.5q-15 -24 -31 -35t-41 -11q-12 0 -30 3l-111 19q16 61 47.5 106t73 74t91 43.5t103.5 14.5z" />
<glyph unicode="&#xb4;" horiz-adv-x="626" d="M821 1506l-280 -269q-25 -24 -48 -32.5t-57 -8.5h-182l158 251q18 29 43 44t71 15h295z" />
<glyph unicode="&#xb5;" horiz-adv-x="1097" d="M467 1060l-84 -674q-2 -11 -2 -21v-19q0 -63 26 -97t78 -34q45 0 87 21t83 57l97 767h305l-131 -1060h-191q-55 0 -67 51l-11 63q-30 -27 -55 -45t-51 -28.5t-53 -15.5t-58 -5q-42 0 -76.5 12.5t-62.5 35.5q6 -40 6 -84q0 -27 -2 -52t-4 -49l-27 -222h-151q-58 0 -89 27 t-31 76v10t1 10l158 1276h305z" />
<glyph unicode="&#xb6;" horiz-adv-x="1492" d="M1587 1492l-33 -257h-214l-179 -1456h-276l179 1456h-201l-179 -1456h-276l103 842q-97 0 -176 29t-134.5 80t-85 121t-29.5 151q0 98 39 187t109 156.5t168 107t216 39.5h969z" />
<glyph unicode="&#xb7;" horiz-adv-x="583" d="M80 610q0 46 18 87t49 71.5t72.5 48t89.5 17.5t90.5 -17.5t74 -48t49.5 -71.5t18 -87t-18 -86.5t-49.5 -70.5t-74 -47.5t-90.5 -17.5t-89.5 17.5t-72.5 47.5t-49 70.5t-18 86.5z" />
<glyph unicode="&#xb8;" horiz-adv-x="626" d="M98 -219q15 0 27 -5t31 -5q24 0 34.5 12t10.5 27q0 20 -26.5 31t-90.5 20l61 156h191l-25 -65q73 -22 101 -57t28 -77q0 -40 -21 -72.5t-57.5 -55t-88 -34t-111.5 -11.5q-39 0 -71.5 4t-67.5 14l40 92q5 11 13 18.5t22 7.5z" />
<glyph unicode="&#xb9;" horiz-adv-x="684" d="M231 1075h133l35 299l13 54l-60 -43q-11 -8 -22.5 -10.5t-21.5 -2.5q-17 0 -30.5 7t-19.5 17l-55 90l270 202h184l-75 -613h88l-19 -153h-440z" />
<glyph unicode="&#xba;" horiz-adv-x="745" d="M498 1510q66 0 119 -20t90.5 -56.5t58 -89t20.5 -116.5q0 -87 -28 -157.5t-77.5 -119.5t-117 -75t-145.5 -26q-67 0 -120.5 20t-92 57t-59.5 90t-21 120q0 86 28.5 155.5t79.5 117.5t118.5 74t146.5 26zM440 1022q60 0 84.5 52.5t24.5 153.5q0 110 -72 109 q-38 0 -60.5 -14.5t-34.5 -41.5t-16 -64.5t-4 -83.5q0 -111 78 -111z" />
<glyph unicode="&#xbb;" horiz-adv-x="987" d="M545 575l-4 -37l-299 -412l-95 45q-40 19 -39 55q0 14 5.5 28.5t15.5 31.5l137 224q8 14 19 25.5t22 19.5q-18 18 -28 48l-84 224q-8 22 -9 39q0 24 13.5 43.5t42.5 30.5l106 45zM891 575l-4 -37l-299 -412l-94 45q-40 19 -40 55q0 14 5.5 28.5t15.5 31.5l137 224 q8 14 19 25.5t22 19.5q-18 18 -28 48l-84 224q-8 22 -9 39q0 24 13.5 43.5t42.5 30.5l106 45z" />
<glyph unicode="&#xbc;" horiz-adv-x="1510" d="M487 87q-36 -51 -75 -69t-88 -18h-125l973 1390q35 49 77.5 74.5t98.5 25.5h125zM1354 317h84l-15 -123q-3 -14 -14.5 -26.5t-30.5 -12.5h-45l-18 -155h-182l18 155h-283q-28 0 -42.5 12.5t-16.5 32.5l-8 104l397 462h211zM190 879h133l35 299l13 54l-60 -43 q-20 -14 -48 -14q-17 0 -28.5 7.5t-17.5 16.5l-55 90l270 202h184l-75 -612h88l-19 -154h-440zM1184 423q6 55 23 126l-193 -232h156z" />
<glyph unicode="&#xbd;" horiz-adv-x="1510" d="M459 87q-36 -51 -75.5 -69t-88.5 -18h-125l974 1390q35 49 77.5 74.5t97.5 25.5h125zM1200 774q59 0 104 -16.5t74 -44t43.5 -64.5t14.5 -78q0 -47 -15.5 -86t-41.5 -73t-60 -66t-70 -64l-124 -113q35 10 68.5 15.5t59.5 5.5h82q32 0 48 -14.5t16 -40.5q0 -2 -0.5 -9 t-3.5 -36l-11 -90h-579l10 69q2 19 13.5 41.5t31.5 41.5l230 201q26 23 47.5 48.5t38.5 51t26.5 50t9.5 46.5q0 24 -10 40t-35 16q-24 0 -38.5 -11.5t-30.5 -35.5q-15 -22 -31.5 -33t-44.5 -11q-7 0 -16.5 1t-29.5 4l-104 18q34 123 121 180t207 57zM201 879h132l36 299 l12 54l-59 -43q-20 -14 -49 -14q-17 0 -28.5 7.5t-17.5 16.5l-55 90l270 202h185l-76 -612h88l-18 -154h-441z" />
<glyph unicode="&#xbe;" horiz-adv-x="1510" d="M500 87q-36 -51 -75.5 -69t-88.5 -18h-125l974 1390q35 49 77.5 74.5t97.5 25.5h125zM1364 317h84l-14 -123q-3 -14 -15 -26.5t-30 -12.5h-46l-18 -155h-182l18 155h-282q-28 0 -43 12.5t-17 32.5l-8 104l397 462h211zM498 1499q58 0 101.5 -16.5t72.5 -42.5t44 -59 t15 -67q0 -68 -26.5 -113t-94.5 -72q46 -18 69 -49.5t23 -83.5q0 -74 -28.5 -126.5t-73 -86.5t-100.5 -50t-109 -16t-96 9t-77 32.5t-58 64t-37 104.5l100 39q25 9 48 9t39 -8.5t22 -24.5q9 -26 27.5 -38t41.5 -12q37 0 59.5 22.5t22.5 64.5q0 39 -28 51t-97 12l19 148 q41 0 68 4t43 14t22 25.5t6 39.5q0 23 -10.5 38t-40.5 15q-28 0 -42.5 -10t-27.5 -31q-15 -24 -31 -35t-40 -11q-12 0 -31 3l-111 20q16 61 47.5 105.5t73 73.5t91.5 43.5t104 14.5zM1194 423q6 55 24 126l-194 -232h157z" />
<glyph unicode="&#xbf;" horiz-adv-x="839" d="M737 -203q-40 -31 -84.5 -59t-94.5 -48.5t-106.5 -32.5t-119.5 -12q-82 0 -147 21.5t-109.5 61.5t-68 96.5t-23.5 127.5q0 81 22.5 138.5t57 99.5t76.5 72.5t80.5 57t68.5 53t41 61.5l45 145h209v-166q0 -48 -22 -85t-55 -68t-71 -58t-70.5 -55.5t-54.5 -62.5t-22 -78 q0 -62 29 -92t71 -30q48 0 82.5 11.5t60 25t45 25.5t37.5 12q38 0 58 -35zM330 904q0 37 13.5 69t38 55.5t57 37t71.5 13.5q38 0 70.5 -13.5t57.5 -37t38.5 -55.5t13.5 -69t-13.5 -69t-38.5 -55.5t-57.5 -37t-70.5 -13.5q-39 0 -71.5 13.5t-57 37t-38 55.5t-13.5 69z" />
<glyph unicode="&#xc0;" horiz-adv-x="1357" d="M0 0zM1319 0h-258q-43 0 -69 20t-31 53l-47 268h-506l-111 -268q-11 -29 -44 -51t-73 -22h-262l713 1492h342zM501 568h375l-73 426q-9 53 -20 108t-18 100q-8 -25 -21.5 -56t-26 -60.5t-24.5 -55t-17 -38.5zM729 1839q23 0 38.5 -2t27.5 -6.5t22.5 -14t22.5 -22.5 l145 -206h-262q-34 0 -52.5 11t-41.5 31l-237 209h337z" />
<glyph unicode="&#xc1;" horiz-adv-x="1357" d="M0 0zM1319 0h-258q-43 0 -69 20t-31 53l-47 268h-506l-111 -268q-11 -29 -44 -51t-73 -22h-262l713 1492h342zM501 568h375l-73 426q-9 53 -20 108t-18 100q-8 -25 -21.5 -56t-26 -60.5t-24.5 -55t-17 -38.5zM1304 1839l-289 -209q-33 -24 -58 -33t-57 -9h-251l197 206 q15 13 27 22.5t26 14t30 6.5t39 2h336z" />
<glyph unicode="&#xc2;" horiz-adv-x="1357" d="M0 0zM1319 0h-258q-43 0 -69 20t-31 53l-47 268h-506l-111 -268q-11 -29 -44 -51t-73 -22h-262l713 1492h342zM501 568h375l-73 426q-9 53 -20 108t-18 100q-8 -25 -21.5 -56t-26 -60.5t-24.5 -55t-17 -38.5zM1194 1588h-231q-17 0 -37.5 4t-32.5 15l-73 64l-91 -64 q-13 -9 -34 -14t-39 -5h-230l258 231h308z" />
<glyph unicode="&#xc3;" horiz-adv-x="1357" d="M0 0zM1319 0h-258q-43 0 -69 20t-31 53l-47 268h-506l-111 -268q-11 -29 -44 -51t-73 -22h-262l713 1492h342zM501 568h375l-73 426q-9 53 -20 108t-18 100q-8 -25 -21.5 -56t-26 -60.5t-24.5 -55t-17 -38.5zM953 1764q18 0 33 13t18 42h166q-7 -55 -26.5 -100.5 t-50.5 -78t-70.5 -50.5t-86.5 -18q-35 0 -67 10t-60.5 22t-52.5 22t-41 10q-18 0 -32 -14t-17 -44h-168q7 55 27 100.5t51 79t70 51.5t86 18q35 0 67.5 -10t61 -21.5t52 -21.5t40.5 -10z" />
<glyph unicode="&#xc4;" horiz-adv-x="1357" d="M0 0zM1319 0h-258q-43 0 -69 20t-31 53l-47 268h-506l-111 -268q-11 -29 -44 -51t-73 -22h-262l713 1492h342zM501 568h375l-73 426q-9 53 -20 108t-18 100q-8 -25 -21.5 -56t-26 -60.5t-24.5 -55t-17 -38.5zM756 1706q0 -29 -11 -53.5t-31 -43t-47 -28.5t-56 -10 q-28 0 -53 10t-44.5 28.5t-31 43t-11.5 53.5t11.5 55t31 45t44.5 30t53 11q30 0 56.5 -11t46.5 -30t31 -45t11 -55zM1123 1706q0 -29 -11.5 -53.5t-31 -43t-45.5 -28.5t-56 -10t-55.5 10t-44 28.5t-30 43t-11.5 53.5t11.5 55t30 45t44.5 30t55 11q30 0 56 -11t45.5 -30 t31 -45t11.5 -55z" />
<glyph unicode="&#xc5;" horiz-adv-x="1357" d="M0 0zM1319 0h-258q-43 0 -69 20t-31 53l-47 268h-506l-111 -268q-11 -29 -44 -51t-73 -22h-262l713 1492h342zM501 568h375l-73 426q-9 53 -20 108t-18 100q-8 -25 -21.5 -56t-26 -60.5t-24.5 -55t-17 -38.5zM582 1742q0 47 19 85.5t50 65.5t72 42t86 15q47 0 89 -15 t74.5 -42t51.5 -65.5t19 -85.5q0 -45 -19 -82.5t-51.5 -64t-74.5 -41t-89 -14.5q-45 0 -86 14.5t-72 41t-50 64t-19 82.5zM731 1742q0 -36 20 -59t62 -23q37 0 58.5 23t21.5 59q0 39 -21.5 61.5t-58.5 22.5q-42 0 -62 -22.5t-20 -61.5z" />
<glyph unicode="&#xc6;" horiz-adv-x="1757" d="M733 1492h1082l-33 -257h-613v-363h437l-31 -247h-406v-368h494l-33 -257h-776v341h-439l-134 -268q-14 -30 -48.5 -51.5t-76.5 -21.5h-260zM528 568h326v659q-22 -52 -43 -98.5t-45 -85.5z" />
<glyph unicode="&#xc7;" horiz-adv-x="1210" d="M498 -219q15 0 27 -5t30 -5q24 0 34.5 12t10.5 27q0 20 -26 31t-91 20l52 131q-117 17 -207 72.5t-151.5 140t-93.5 194t-32 235.5q0 128 29 242.5t81 212t125 175t162.5 132t191.5 83.5t214 29q84 0 153 -15.5t125 -44t100 -67.5t77 -86l-117 -135q-12 -14 -28.5 -25.5 t-43.5 -11.5q-17 0 -31.5 8.5t-29.5 20t-33 26t-44 26t-61 20t-83 8.5q-94 0 -175.5 -40t-141.5 -114t-94 -180t-34 -238q0 -95 23 -169.5t63 -126.5t95.5 -79t119.5 -27q56 0 98 8.5t71.5 22t50 29.5t37 29t30.5 22t31 9q16 0 27 -5.5t16 -13.5l116 -140 q-85 -100 -196.5 -158.5t-250.5 -72.5l-13 -36q73 -22 101 -57t28 -77q0 -40 -21 -72.5t-58 -55t-88 -34t-112 -11.5q-39 0 -71 4t-68 14l41 92q5 11 13 18.5t22 7.5z" />
<glyph unicode="&#xc8;" horiz-adv-x="1060" d="M45 0zM1085 1235h-551l-46 -361h423l-32 -247h-421l-45 -370h556l-33 -257h-891l184 1492h889zM604 1839q23 0 38.5 -2t27.5 -6.5t22.5 -14t22.5 -22.5l145 -206h-262q-34 0 -52.5 11t-41.5 31l-237 209h337z" />
<glyph unicode="&#xc9;" horiz-adv-x="1060" d="M45 0zM1085 1235h-551l-46 -361h423l-32 -247h-421l-45 -370h556l-33 -257h-891l184 1492h889zM1149 1839l-289 -209q-33 -24 -58 -33t-57 -9h-251l197 206q15 13 27 22.5t26 14t30 6.5t39 2h336z" />
<glyph unicode="&#xca;" horiz-adv-x="1060" d="M45 0zM1085 1235h-551l-46 -361h423l-32 -247h-421l-45 -370h556l-33 -257h-891l184 1492h889zM1069 1588h-231q-17 0 -37.5 4t-32.5 15l-73 64l-91 -64q-13 -9 -34 -14t-39 -5h-230l258 231h308z" />
<glyph unicode="&#xcb;" horiz-adv-x="1060" d="M45 0zM1085 1235h-551l-46 -361h423l-32 -247h-421l-45 -370h556l-33 -257h-891l184 1492h889zM631 1706q0 -29 -11 -53.5t-31 -43t-47 -28.5t-56 -10q-28 0 -53 10t-44.5 28.5t-31 43t-11.5 53.5t11.5 55t31 45t44.5 30t53 11q30 0 56.5 -11t46.5 -30t31 -45t11 -55z M998 1706q0 -29 -11.5 -53.5t-31 -43t-45.5 -28.5t-56 -10t-55.5 10t-44 28.5t-30 43t-11.5 53.5t11.5 55t30 45t44.5 30t55 11q30 0 56 -11t45.5 -30t31 -45t11.5 -55z" />
<glyph unicode="&#xcc;" horiz-adv-x="606" d="M20 0zM410 0h-336l182 1492h336zM357 1839q23 0 38.5 -2t27.5 -6.5t22.5 -14t22.5 -22.5l145 -206h-262q-34 0 -52.5 11t-41.5 31l-237 209h337z" />
<glyph unicode="&#xcd;" horiz-adv-x="606" d="M74 0zM410 0h-336l182 1492h336zM902 1839l-289 -209q-33 -24 -58 -33t-57 -9h-251l197 206q15 13 27 22.5t26 14t30 6.5t39 2h336z" />
<glyph unicode="&#xce;" horiz-adv-x="606" d="M54 0zM410 0h-336l182 1492h336zM822 1588h-231q-17 0 -37.5 4t-32.5 15l-73 64l-91 -64q-13 -9 -34 -14t-39 -5h-230l258 231h308z" />
<glyph unicode="&#xcf;" horiz-adv-x="606" d="M74 0zM410 0h-336l182 1492h336zM384 1706q0 -29 -11 -53.5t-31 -43t-47 -28.5t-56 -10q-28 0 -53 10t-44.5 28.5t-31 43t-11.5 53.5t11.5 55t31 45t44.5 30t53 11q30 0 56.5 -11t46.5 -30t31 -45t11 -55zM751 1706q0 -29 -11.5 -53.5t-31 -43t-45.5 -28.5t-56 -10 t-55.5 10t-44 28.5t-30 43t-11.5 53.5t11.5 55t30 45t44.5 30t55 11q30 0 56 -11t45.5 -30t31 -45t11.5 -55z" />
<glyph unicode="&#xd0;" horiz-adv-x="1492" d="M94 839h152l80 653h536q147 0 264.5 -49.5t199.5 -136.5t125.5 -206t43.5 -258q0 -122 -27.5 -231t-79 -203t-124.5 -169t-163.5 -128.5t-196.5 -82t-224 -28.5h-537l80 656h-153zM1153 834q0 91 -21 165t-62.5 126.5t-102 81t-138.5 28.5h-200l-47 -396h319l-22 -183 h-320l-47 -399h201q102 0 183.5 40.5t138.5 115t87.5 181.5t30.5 240z" />
<glyph unicode="&#xd1;" horiz-adv-x="1425" d="M45 0zM406 1492q22 0 36.5 -1.5t26 -7t21 -16t18.5 -26.5l523 -922q2 36 6 69t7 61l101 843h295l-185 -1492h-174q-39 0 -64.5 11.5t-43.5 43.5l-521 921q-2 -29 -5 -55.5t-5 -50.5l-102 -870h-295l184 1492h177v0zM979 1764q18 0 33 13t18 42h166q-7 -55 -26.5 -100.5 t-50.5 -78t-70.5 -50.5t-86.5 -18q-35 0 -67 10t-60.5 22t-52.5 22t-41 10q-18 0 -32 -14t-17 -44h-168q7 55 27 100.5t51 79t70 51.5t86 18q35 0 67.5 -10t61 -21.5t52 -21.5t40.5 -10z" />
<glyph unicode="&#xd2;" horiz-adv-x="1499" d="M51 0zM1503 842q0 -121 -28 -231.5t-80 -206t-125 -173t-164 -132.5t-197.5 -85t-224.5 -30q-147 0 -264.5 51.5t-199.5 141t-125.5 211t-43.5 261.5q0 121 28.5 232t80 206.5t125 173t165 132.5t198 85t224.5 30q146 0 263.5 -51.5t199 -141.5t125 -212t43.5 -261z M1161 834q0 92 -22 167t-64.5 129t-104 83t-139.5 29q-102 0 -183 -42.5t-137.5 -119t-87 -185t-30.5 -239.5q0 -92 21.5 -166.5t63 -128t103 -82.5t140.5 -29q102 0 183.5 42t138.5 118.5t87.5 184.5t30.5 239zM796 1839q23 0 38.5 -2t27.5 -6.5t22.5 -14t22.5 -22.5 l145 -206h-262q-34 0 -52.5 11t-41.5 31l-237 209h337z" />
<glyph unicode="&#xd3;" horiz-adv-x="1499" d="M51 0zM1503 842q0 -121 -28 -231.5t-80 -206t-125 -173t-164 -132.5t-197.5 -85t-224.5 -30q-147 0 -264.5 51.5t-199.5 141t-125.5 211t-43.5 261.5q0 121 28.5 232t80 206.5t125 173t165 132.5t198 85t224.5 30q146 0 263.5 -51.5t199 -141.5t125 -212t43.5 -261z M1161 834q0 92 -22 167t-64.5 129t-104 83t-139.5 29q-102 0 -183 -42.5t-137.5 -119t-87 -185t-30.5 -239.5q0 -92 21.5 -166.5t63 -128t103 -82.5t140.5 -29q102 0 183.5 42t138.5 118.5t87.5 184.5t30.5 239zM1341 1839l-289 -209q-33 -24 -58 -33t-57 -9h-251l197 206 q15 13 27 22.5t26 14t30 6.5t39 2h336z" />
<glyph unicode="&#xd4;" horiz-adv-x="1499" d="M51 0zM1503 842q0 -121 -28 -231.5t-80 -206t-125 -173t-164 -132.5t-197.5 -85t-224.5 -30q-147 0 -264.5 51.5t-199.5 141t-125.5 211t-43.5 261.5q0 121 28.5 232t80 206.5t125 173t165 132.5t198 85t224.5 30q146 0 263.5 -51.5t199 -141.5t125 -212t43.5 -261z M1161 834q0 92 -22 167t-64.5 129t-104 83t-139.5 29q-102 0 -183 -42.5t-137.5 -119t-87 -185t-30.5 -239.5q0 -92 21.5 -166.5t63 -128t103 -82.5t140.5 -29q102 0 183.5 42t138.5 118.5t87.5 184.5t30.5 239zM1261 1588h-231q-17 0 -37.5 4t-32.5 15l-73 64l-91 -64 q-13 -9 -34 -14t-39 -5h-230l258 231h308z" />
<glyph unicode="&#xd5;" horiz-adv-x="1499" d="M51 0zM1503 842q0 -121 -28 -231.5t-80 -206t-125 -173t-164 -132.5t-197.5 -85t-224.5 -30q-147 0 -264.5 51.5t-199.5 141t-125.5 211t-43.5 261.5q0 121 28.5 232t80 206.5t125 173t165 132.5t198 85t224.5 30q146 0 263.5 -51.5t199 -141.5t125 -212t43.5 -261z M1161 834q0 92 -22 167t-64.5 129t-104 83t-139.5 29q-102 0 -183 -42.5t-137.5 -119t-87 -185t-30.5 -239.5q0 -92 21.5 -166.5t63 -128t103 -82.5t140.5 -29q102 0 183.5 42t138.5 118.5t87.5 184.5t30.5 239zM1020 1764q18 0 33 13t18 42h166q-7 -55 -26.5 -100.5 t-50.5 -78t-70.5 -50.5t-86.5 -18q-35 0 -67 10t-60.5 22t-52.5 22t-41 10q-18 0 -32 -14t-17 -44h-168q7 55 27 100.5t51 79t70 51.5t86 18q35 0 67.5 -10t61 -21.5t52 -21.5t40.5 -10z" />
<glyph unicode="&#xd6;" horiz-adv-x="1499" d="M51 0zM1503 842q0 -121 -28 -231.5t-80 -206t-125 -173t-164 -132.5t-197.5 -85t-224.5 -30q-147 0 -264.5 51.5t-199.5 141t-125.5 211t-43.5 261.5q0 121 28.5 232t80 206.5t125 173t165 132.5t198 85t224.5 30q146 0 263.5 -51.5t199 -141.5t125 -212t43.5 -261z M1161 834q0 92 -22 167t-64.5 129t-104 83t-139.5 29q-102 0 -183 -42.5t-137.5 -119t-87 -185t-30.5 -239.5q0 -92 21.5 -166.5t63 -128t103 -82.5t140.5 -29q102 0 183.5 42t138.5 118.5t87.5 184.5t30.5 239zM823 1706q0 -29 -11 -53.5t-31 -43t-47 -28.5t-56 -10 q-28 0 -53 10t-44.5 28.5t-31 43t-11.5 53.5t11.5 55t31 45t44.5 30t53 11q30 0 56.5 -11t46.5 -30t31 -45t11 -55zM1190 1706q0 -29 -11.5 -53.5t-31 -43t-45.5 -28.5t-56 -10t-55.5 10t-44 28.5t-30 43t-11.5 53.5t11.5 55t30 45t44.5 30t55 11q30 0 56 -11t45.5 -30 t31 -45t11.5 -55z" />
<glyph unicode="&#xd7;" d="M1133 1009l-360 -320l298 -340l-180 -154l-296 335l-380 -337l-141 154l383 341l-283 323l180 155l281 -319l356 317z" />
<glyph unicode="&#xd8;" horiz-adv-x="1499" d="M1503 842q0 -121 -28 -231.5t-80 -206t-125 -173t-164 -132.5t-197.5 -85t-224.5 -30q-86 0 -161.5 17t-139.5 50l-64 -81q-19 -25 -42.5 -41t-48.5 -26.5t-50.5 -14.5t-48.5 -4h-131l226 288q-84 91 -128.5 213t-44.5 264q0 121 28.5 232t80 206.5t125 173t165 132.5 t198 85t224.5 30q96 0 179.5 -22.5t152.5 -64.5l45 58q17 23 32 38t31.5 24t36 13t46.5 4h170l-210 -268q73 -89 110.5 -203t37.5 -245zM393 656q0 -126 40 -218l585 747q-38 28 -84.5 42.5t-102.5 14.5q-102 0 -183 -42.5t-137.5 -119t-87 -185t-30.5 -239.5zM1161 834 q0 49 -6.5 93.5t-18.5 83.5l-570 -725q67 -36 155 -36q102 0 183.5 42t138.5 118.5t87.5 184.5t30.5 239z" />
<glyph unicode="&#xd9;" horiz-adv-x="1366" d="M96 0zM655 262q62 0 113.5 24t90.5 68.5t64.5 108t34.5 142.5l109 887h334l-109 -887q-17 -136 -72 -250t-142.5 -196.5t-203 -128.5t-253.5 -46q-125 0 -223 37.5t-165 107t-102 165.5t-35 212q0 48 6 99l107 887h334l-109 -887q-2 -18 -3 -36t-1 -35 q0 -127 57.5 -199.5t167.5 -72.5zM735 1838q23 0 38.5 -2t27.5 -6.5t22.5 -14t22.5 -22.5l145 -206h-262q-34 0 -52.5 11t-41.5 31l-237 209h337z" />
<glyph unicode="&#xda;" horiz-adv-x="1366" d="M96 0zM655 262q62 0 113.5 24t90.5 68.5t64.5 108t34.5 142.5l109 887h334l-109 -887q-17 -136 -72 -250t-142.5 -196.5t-203 -128.5t-253.5 -46q-125 0 -223 37.5t-165 107t-102 165.5t-35 212q0 48 6 99l107 887h334l-109 -887q-2 -18 -3 -36t-1 -35 q0 -127 57.5 -199.5t167.5 -72.5zM1280 1838l-289 -209q-33 -24 -58 -33t-57 -9h-251l197 206q15 13 27 22.5t26 14t30 6.5t39 2h336z" />
<glyph unicode="&#xdb;" horiz-adv-x="1366" d="M96 0zM655 262q62 0 113.5 24t90.5 68.5t64.5 108t34.5 142.5l109 887h334l-109 -887q-17 -136 -72 -250t-142.5 -196.5t-203 -128.5t-253.5 -46q-125 0 -223 37.5t-165 107t-102 165.5t-35 212q0 48 6 99l107 887h334l-109 -887q-2 -18 -3 -36t-1 -35 q0 -127 57.5 -199.5t167.5 -72.5zM1200 1587h-231q-17 0 -37.5 4t-32.5 15l-73 64l-91 -64q-13 -9 -34 -14t-39 -5h-230l258 231h308z" />
<glyph unicode="&#xdc;" horiz-adv-x="1366" d="M96 0zM655 262q62 0 113.5 24t90.5 68.5t64.5 108t34.5 142.5l109 887h334l-109 -887q-17 -136 -72 -250t-142.5 -196.5t-203 -128.5t-253.5 -46q-125 0 -223 37.5t-165 107t-102 165.5t-35 212q0 48 6 99l107 887h334l-109 -887q-2 -18 -3 -36t-1 -35 q0 -127 57.5 -199.5t167.5 -72.5zM762 1705q0 -29 -11 -53.5t-31 -43t-47 -28.5t-56 -10q-28 0 -53 10t-44.5 28.5t-31 43t-11.5 53.5t11.5 55t31 45t44.5 30t53 11q30 0 56.5 -11t46.5 -30t31 -45t11 -55zM1129 1705q0 -29 -11.5 -53.5t-31 -43t-45.5 -28.5t-56 -10 t-55.5 10t-44 28.5t-30 43t-11.5 53.5t11.5 55t30 45t44.5 30t55 11q30 0 56 -11t45.5 -30t31 -45t11.5 -55z" />
<glyph unicode="&#xdd;" horiz-adv-x="1286" d="M100 0zM818 571l-70 -571h-334l70 568l-384 924h297q43 0 67 -20t36 -53l143 -451q14 -45 26 -87t20 -81q19 39 43 80.5t50 87.5l254 451q15 28 45 50.5t72 22.5h277zM1265 1836l-289 -209q-33 -24 -58 -33t-57 -9h-251l197 206q15 13 27 22.5t26 14t30 6.5t39 2h336z " />
<glyph unicode="&#xde;" horiz-adv-x="1208" d="M592 1245h162q132 0 226.5 -32t156 -88t90 -132.5t28.5 -165.5q0 -123 -37 -226.5t-114 -179.5t-194.5 -118.5t-278.5 -42.5h-161l-32 -260h-332l183 1492h334zM561 996l-60 -485h163q72 0 120.5 21t78.5 59.5t43.5 91.5t13.5 117q0 44 -12 79.5t-36.5 62t-62 40.5 t-88.5 14h-160z" />
<glyph unicode="&#xdf;" horiz-adv-x="1243" d="M804 1519q116 0 193.5 -34t124.5 -84.5t67 -109t20 -108.5q0 -67 -20 -113t-49.5 -79t-64.5 -56.5t-64.5 -44.5t-49.5 -43.5t-20 -52.5q0 -27 19.5 -48.5t48 -44t62.5 -48t62.5 -61.5t48 -83.5t19.5 -113.5q0 -103 -38 -180.5t-100.5 -128.5t-141.5 -76.5t-162 -25.5 q-42 0 -84 10t-81 27.5t-73 41.5t-59 52l86 112q14 18 34 30t48 12q26 0 45 -12t38.5 -27.5t42.5 -28t56 -12.5q17 0 34.5 9.5t31.5 26.5t22 40t8 50q0 37 -22 64t-54.5 50t-71.5 46.5t-72 54.5t-55 73t-22 103q0 73 22.5 122.5t56 85.5t72.5 63.5t72 55.5t55.5 60.5 t22.5 81.5q0 58 -36 94t-113 36q-59 0 -104 -35.5t-76.5 -92.5t-51 -129t-28.5 -146l-103 -851l-55 -178q-18 -59 -56 -92t-108 -33h-129l133 1096l-77 18q-31 7 -50 21.5t-19 41.5q0 1 0.5 4t2 15.5t4.5 39t8 72.5h173q31 91 85.5 174.5t128 147.5t165.5 102.5t198 38.5z " />
<glyph unicode="&#xe0;" horiz-adv-x="1083" d="M30 0zM919 0h-170q-30 0 -50 7.5t-32 21t-16.5 32t-4.5 39.5v76q-66 -90 -145.5 -141t-175.5 -51q-57 0 -110.5 23t-94.5 69.5t-65.5 118.5t-24.5 171q0 144 52.5 273.5t147.5 227t225 154.5t285 57q76 0 154 -10t154 -37zM452 234q35 0 67.5 26.5t61.5 71.5t53.5 105.5 t42.5 128.5l37 294h-19q-78 0 -142 -34.5t-110 -94.5t-71 -139.5t-25 -169.5q0 -51 8.5 -87t22 -58t32.5 -32.5t42 -10.5zM689 1506q45 0 66 -14.5t32 -44.5l96 -251h-174q-34 0 -54 9t-38 32l-215 269h287z" />
<glyph unicode="&#xe1;" horiz-adv-x="1083" d="M30 0zM919 0h-170q-30 0 -50 7.5t-32 21t-16.5 32t-4.5 39.5v76q-66 -90 -145.5 -141t-175.5 -51q-57 0 -110.5 23t-94.5 69.5t-65.5 118.5t-24.5 171q0 144 52.5 273.5t147.5 227t225 154.5t285 57q76 0 154 -10t154 -37zM452 234q35 0 67.5 26.5t61.5 71.5t53.5 105.5 t42.5 128.5l37 294h-19q-78 0 -142 -34.5t-110 -94.5t-71 -139.5t-25 -169.5q0 -51 8.5 -87t22 -58t32.5 -32.5t42 -10.5zM1125 1506l-280 -269q-25 -24 -48 -32.5t-57 -8.5h-182l158 251q18 29 43 44t71 15h295z" />
<glyph unicode="&#xe2;" horiz-adv-x="1083" d="M30 0zM919 0h-170q-30 0 -50 7.5t-32 21t-16.5 32t-4.5 39.5v76q-66 -90 -145.5 -141t-175.5 -51q-57 0 -110.5 23t-94.5 69.5t-65.5 118.5t-24.5 171q0 144 52.5 273.5t147.5 227t225 154.5t285 57q76 0 154 -10t154 -37zM452 234q35 0 67.5 26.5t61.5 71.5t53.5 105.5 t42.5 128.5l37 294h-19q-78 0 -142 -34.5t-110 -94.5t-71 -139.5t-25 -169.5q0 -51 8.5 -87t22 -58t32.5 -32.5t42 -10.5zM1068 1196h-203q-17 0 -33 6t-22 15l-66 76q-5 5 -10.5 11t-10.5 13q-8 -7 -15 -13t-13 -11l-86 -76q-9 -8 -26 -14.5t-35 -6.5h-211l258 294h289z " />
<glyph unicode="&#xe3;" horiz-adv-x="1083" d="M30 0zM919 0h-170q-30 0 -50 7.5t-32 21t-16.5 32t-4.5 39.5v76q-66 -90 -145.5 -141t-175.5 -51q-57 0 -110.5 23t-94.5 69.5t-65.5 118.5t-24.5 171q0 144 52.5 273.5t147.5 227t225 154.5t285 57q76 0 154 -10t154 -37zM452 234q35 0 67.5 26.5t61.5 71.5t53.5 105.5 t42.5 128.5l37 294h-19q-78 0 -142 -34.5t-110 -94.5t-71 -139.5t-25 -169.5q0 -51 8.5 -87t22 -58t32.5 -32.5t42 -10.5zM830 1414q22 0 37 14t21 56h184q-8 -62 -31 -113t-57.5 -86.5t-77.5 -55t-90 -19.5q-36 0 -64.5 12.5t-52.5 27t-43.5 26.5t-36.5 12q-22 0 -36 -15 t-19 -56h-186q7 62 31 112.5t58.5 87t77.5 56t89 19.5q35 0 64 -12.5t53 -26.5t43.5 -26.5t35.5 -12.5z" />
<glyph unicode="&#xe4;" horiz-adv-x="1083" d="M30 0zM919 0h-170q-30 0 -50 7.5t-32 21t-16.5 32t-4.5 39.5v76q-66 -90 -145.5 -141t-175.5 -51q-57 0 -110.5 23t-94.5 69.5t-65.5 118.5t-24.5 171q0 144 52.5 273.5t147.5 227t225 154.5t285 57q76 0 154 -10t154 -37zM452 234q35 0 67.5 26.5t61.5 71.5t53.5 105.5 t42.5 128.5l37 294h-19q-78 0 -142 -34.5t-110 -94.5t-71 -139.5t-25 -169.5q0 -51 8.5 -87t22 -58t32.5 -32.5t42 -10.5zM689 1349q0 -33 -13.5 -62t-36.5 -49.5t-53 -33t-65 -12.5q-33 0 -62 12.5t-51 33t-35.5 49.5t-13.5 62q0 34 13.5 63.5t35.5 51.5t51 34.5t62 12.5 q35 0 65 -12.5t53 -34.5t36.5 -51.5t13.5 -63.5zM1084 1349q0 -33 -12.5 -62t-35 -49.5t-53 -33t-65.5 -12.5q-34 0 -63.5 12.5t-52 33t-35 49.5t-12.5 62q0 34 12.5 63.5t35 51.5t52.5 34.5t63 12.5q35 0 65.5 -12.5t53 -34.5t35 -51.5t12.5 -63.5z" />
<glyph unicode="&#xe5;" horiz-adv-x="1083" d="M30 0zM919 0h-170q-30 0 -50 7.5t-32 21t-16.5 32t-4.5 39.5v76q-66 -90 -145.5 -141t-175.5 -51q-57 0 -110.5 23t-94.5 69.5t-65.5 118.5t-24.5 171q0 144 52.5 273.5t147.5 227t225 154.5t285 57q76 0 154 -10t154 -37zM452 234q35 0 67.5 26.5t61.5 71.5t53.5 105.5 t42.5 128.5l37 294h-19q-78 0 -142 -34.5t-110 -94.5t-71 -139.5t-25 -169.5q0 -51 8.5 -87t22 -58t32.5 -32.5t42 -10.5zM493 1366q0 51 20.5 92.5t54 71.5t79 45.5t94.5 15.5q50 0 96 -15.5t81.5 -45.5t56 -71.5t20.5 -92.5q0 -50 -20.5 -90.5t-56 -69t-81.5 -44.5 t-96 -16q-49 0 -94.5 16t-79 44.5t-54 69t-20.5 90.5zM663 1366q0 -36 20 -59t62 -23q37 0 58.5 23t21.5 59q0 39 -21.5 61.5t-58.5 22.5q-42 0 -62 -22.5t-20 -61.5z" />
<glyph unicode="&#xe6;" horiz-adv-x="1508" d="M1149 1076q69 0 128.5 -22.5t104 -61.5t70 -90.5t25.5 -109.5q0 -37 -9.5 -75.5t-34 -75t-66.5 -68.5t-108 -58t-158 -42.5t-216 -20.5q3 -122 51 -176.5t135 -54.5q42 0 73 7.5t54 18.5t41 23.5t35 23.5t35.5 18t42.5 7q15 0 29.5 -7.5t25.5 -19.5l82 -95 q-56 -55 -110 -96t-111 -67t-121 -38t-139 -12q-94 0 -176 44.5t-135 139.5q-36 -48 -79.5 -83t-92 -57.5t-100 -33t-101.5 -10.5q-166 0 -245 68.5t-79 190.5q0 43 12 88.5t39.5 88t73.5 81t114 67.5t161 47.5t214 21.5q5 33 6.5 47t1.5 26q0 71 -29.5 103t-82.5 32 q-51 0 -84.5 -13t-61 -27.5t-53.5 -27.5t-61 -13q-31 0 -51.5 15.5t-30.5 37.5l-43 96q99 84 201.5 125.5t218.5 41.5q105 0 170.5 -37t98.5 -103q65 65 148.5 100.5t186.5 35.5zM592 457q-93 -5 -151 -21t-90.5 -39.5t-44 -54t-11.5 -62.5q0 -94 88 -95q38 0 72 13.5 t61.5 43t46.5 77.5t27 116zM1108 864q-45 0 -80.5 -17t-61.5 -48t-43.5 -75t-26.5 -98q98 9 158 25t92.5 35.5t43 42.5t10.5 47q0 36 -20.5 62t-71.5 26z" />
<glyph unicode="&#xe7;" horiz-adv-x="897" d="M300 -219q15 0 27 -5t30 -5q24 0 34.5 12t10.5 27q0 20 -26 31t-90 20l52 135q-69 16 -123.5 54t-93 94t-59 129t-20.5 160q0 130 42.5 247t119 205t180.5 139.5t229 51.5q106 0 182.5 -36t137.5 -114l-103 -118q-11 -11 -25 -20t-32 -9q-20 0 -34 9t-30.5 18.5t-40 18.5 t-61.5 9q-47 0 -91.5 -27.5t-79.5 -78.5t-56 -126t-21 -170q0 -53 12.5 -92.5t34 -65.5t50 -39.5t61.5 -13.5q49 0 79.5 14t53 30.5t42 30t46.5 13.5q15 0 30 -7t26 -19l82 -97q-43 -48 -83.5 -83t-82 -59t-86.5 -37.5t-98 -18.5l-13 -36q73 -22 101 -57t28 -77 q0 -40 -21 -72.5t-58 -55t-88 -34t-111 -11.5q-39 0 -71.5 4t-68.5 14l41 92q5 11 13 18.5t22 7.5z" />
<glyph unicode="&#xe8;" horiz-adv-x="991" d="M42 0zM974 801q0 -73 -29 -133.5t-100 -107t-191 -79t-303 -51.5q2 -109 47.5 -159t135.5 -50q42 0 72.5 7.5t53.5 18.5t41.5 23.5t35.5 23.5t35.5 18t41.5 7q15 0 29.5 -7.5t25.5 -19.5l82 -95q-56 -55 -110 -96t-110.5 -67t-120.5 -38t-140 -12q-94 0 -173 32t-136 91 t-88 142t-31 184q0 85 19 166t54.5 152t86.5 131t115 103t140.5 67t162.5 24q85 0 151 -24.5t111 -64t68.5 -88.5t23.5 -98zM601 862q-79 0 -138.5 -63t-88.5 -172q99 15 160.5 32t95.5 37t45.5 43t11.5 49q0 27 -20.5 50.5t-65.5 23.5zM567 1506q45 0 66 -14.5t32 -44.5 l96 -251h-174q-34 0 -54 9t-38 32l-215 269h287z" />
<glyph unicode="&#xe9;" horiz-adv-x="991" d="M42 0zM974 801q0 -73 -29 -133.5t-100 -107t-191 -79t-303 -51.5q2 -109 47.5 -159t135.5 -50q42 0 72.5 7.5t53.5 18.5t41.5 23.5t35.5 23.5t35.5 18t41.5 7q15 0 29.5 -7.5t25.5 -19.5l82 -95q-56 -55 -110 -96t-110.5 -67t-120.5 -38t-140 -12q-94 0 -173 32t-136 91 t-88 142t-31 184q0 85 19 166t54.5 152t86.5 131t115 103t140.5 67t162.5 24q85 0 151 -24.5t111 -64t68.5 -88.5t23.5 -98zM601 862q-79 0 -138.5 -63t-88.5 -172q99 15 160.5 32t95.5 37t45.5 43t11.5 49q0 27 -20.5 50.5t-65.5 23.5zM1043 1506l-280 -269 q-25 -24 -48 -32.5t-57 -8.5h-182l158 251q18 29 43 44t71 15h295z" />
<glyph unicode="&#xea;" horiz-adv-x="991" d="M42 0zM974 801q0 -73 -29 -133.5t-100 -107t-191 -79t-303 -51.5q2 -109 47.5 -159t135.5 -50q42 0 72.5 7.5t53.5 18.5t41.5 23.5t35.5 23.5t35.5 18t41.5 7q15 0 29.5 -7.5t25.5 -19.5l82 -95q-56 -55 -110 -96t-110.5 -67t-120.5 -38t-140 -12q-94 0 -173 32t-136 91 t-88 142t-31 184q0 85 19 166t54.5 152t86.5 131t115 103t140.5 67t162.5 24q85 0 151 -24.5t111 -64t68.5 -88.5t23.5 -98zM601 862q-79 0 -138.5 -63t-88.5 -172q99 15 160.5 32t95.5 37t45.5 43t11.5 49q0 27 -20.5 50.5t-65.5 23.5zM986 1196h-203q-17 0 -33 6t-22 15 l-66 76q-5 5 -10.5 11t-10.5 13q-8 -7 -15 -13t-13 -11l-86 -76q-9 -8 -26 -14.5t-35 -6.5h-211l258 294h289z" />
<glyph unicode="&#xeb;" horiz-adv-x="991" d="M42 0zM974 801q0 -73 -29 -133.5t-100 -107t-191 -79t-303 -51.5q2 -109 47.5 -159t135.5 -50q42 0 72.5 7.5t53.5 18.5t41.5 23.5t35.5 23.5t35.5 18t41.5 7q15 0 29.5 -7.5t25.5 -19.5l82 -95q-56 -55 -110 -96t-110.5 -67t-120.5 -38t-140 -12q-94 0 -173 32t-136 91 t-88 142t-31 184q0 85 19 166t54.5 152t86.5 131t115 103t140.5 67t162.5 24q85 0 151 -24.5t111 -64t68.5 -88.5t23.5 -98zM601 862q-79 0 -138.5 -63t-88.5 -172q99 15 160.5 32t95.5 37t45.5 43t11.5 49q0 27 -20.5 50.5t-65.5 23.5zM607 1349q0 -33 -13.5 -62 t-36.5 -49.5t-53 -33t-65 -12.5q-33 0 -62 12.5t-51 33t-35.5 49.5t-13.5 62q0 34 13.5 63.5t35.5 51.5t51 34.5t62 12.5q35 0 65 -12.5t53 -34.5t36.5 -51.5t13.5 -63.5zM1002 1349q0 -33 -12.5 -62t-35 -49.5t-53 -33t-65.5 -12.5q-34 0 -63.5 12.5t-52 33t-35 49.5 t-12.5 62q0 34 12.5 63.5t35 51.5t52.5 34.5t63 12.5q35 0 65.5 -12.5t53 -34.5t35 -51.5t12.5 -63.5z" />
<glyph unicode="&#xec;" horiz-adv-x="552" d="M5 0zM497 1062l-127 -1062h-314l127 1062h314zM292 1506q45 0 66 -14.5t32 -44.5l96 -251h-174q-34 0 -54 9t-38 32l-215 269h287z" />
<glyph unicode="&#xed;" horiz-adv-x="552" d="M56 0zM497 1062l-127 -1062h-314l127 1062h314zM770 1506l-280 -269q-25 -24 -48 -32.5t-57 -8.5h-182l158 251q18 29 43 44t71 15h295z" />
<glyph unicode="&#xee;" horiz-adv-x="552" d="M0 0zM497 1062l-127 -1062h-314l127 1062h314zM713 1196h-203q-17 0 -33 6t-22 15l-66 76q-5 5 -10.5 11t-10.5 13q-8 -7 -15 -13t-13 -11l-86 -76q-9 -8 -26 -14.5t-35 -6.5h-211l258 294h289z" />
<glyph unicode="&#xef;" horiz-adv-x="552" d="M4 0zM497 1062l-127 -1062h-314l127 1062h314zM334 1349q0 -33 -13.5 -62t-36.5 -49.5t-53 -33t-65 -12.5q-33 0 -62 12.5t-51 33t-35.5 49.5t-13.5 62q0 34 13.5 63.5t35.5 51.5t51 34.5t62 12.5q35 0 65 -12.5t53 -34.5t36.5 -51.5t13.5 -63.5zM729 1349 q0 -33 -12.5 -62t-35 -49.5t-53 -33t-65.5 -12.5q-34 0 -63.5 12.5t-52 33t-35 49.5t-12.5 62q0 34 12.5 63.5t35 51.5t52.5 34.5t63 12.5q35 0 65.5 -12.5t53 -34.5t35 -51.5t12.5 -63.5z" />
<glyph unicode="&#xf0;" horiz-adv-x="1093" d="M415 1082q-8 12 -8 29q0 14 7.5 26t18.5 19l107 62q-27 12 -55.5 22.5t-60.5 22.5q-62 20 -63 66q0 12 4.5 25.5t12.5 28.5l47 95q102 -17 193 -52.5t167 -91.5l196 110l51 -97q8 -16 8 -32q0 -14 -7 -26.5t-24 -22.5l-94 -55q71 -88 110 -203.5t39 -262.5 q0 -178 -41 -319t-118 -239.5t-187.5 -150.5t-249.5 -52q-94 0 -172.5 30t-135 86.5t-87.5 137.5t-31 183q0 109 38.5 206.5t106 170.5t159 116t198.5 43q93 0 161 -33t115 -97q-5 90 -33 161t-88 127l-227 -132zM505 210q40 0 79.5 17.5t73.5 59.5t61 112.5t43 178.5 q-10 33 -25 61t-37.5 49t-52.5 32.5t-68 11.5q-54 0 -97.5 -23t-73.5 -63t-46.5 -94t-16.5 -118q0 -109 44.5 -166.5t115.5 -57.5z" />
<glyph unicode="&#xf1;" horiz-adv-x="1126" d="M36 0zM656 0l80 675q2 16 3 30t1 26q0 54 -19 75t-56 21q-35 0 -73 -21.5t-72.5 -60t-63 -94.5t-44.5 -124l-59 -527h-317l127 1062h164q49 0 76.5 -23t27.5 -75v-85q77 102 168 150.5t188 48.5q59 0 109 -21.5t86 -63t56.5 -102t20.5 -138.5q0 -18 -1.5 -38t-3.5 -40 l-80 -675h-318zM789 1416q22 0 37 14t21 56h184q-8 -62 -31 -113t-57.5 -86.5t-77.5 -55t-90 -19.5q-36 0 -64.5 12.5t-52.5 27t-43.5 26.5t-36.5 12q-22 0 -36 -15t-19 -56h-186q7 62 31 112.5t58.5 87t77.5 56t89 19.5q35 0 64 -12.5t53 -26.5t43.5 -26.5t35.5 -12.5z" />
<glyph unicode="&#xf2;" horiz-adv-x="1058" d="M32 0zM482 219q53 0 95.5 32.5t71.5 88t45 130t16 158.5q0 116 -31.5 165.5t-101.5 49.5q-53 0 -95.5 -32.5t-71.5 -87.5t-45 -130t-16 -159q0 -114 31 -164.5t102 -50.5zM454 -16q-89 0 -166.5 29.5t-134.5 86.5t-89 140.5t-32 191.5q0 141 46.5 259.5t125.5 204.5 t182.5 134t218.5 48q89 0 166 -29.5t134 -86.5t89.5 -140.5t32.5 -191.5q0 -139 -46.5 -257.5t-125.5 -205t-182.5 -135t-218.5 -48.5zM552 1508q45 0 66 -14.5t32 -44.5l96 -251h-174q-34 0 -54 9t-38 32l-215 269h287z" />
<glyph unicode="&#xf3;" horiz-adv-x="1058" d="M32 0zM482 219q53 0 95.5 32.5t71.5 88t45 130t16 158.5q0 116 -31.5 165.5t-101.5 49.5q-53 0 -95.5 -32.5t-71.5 -87.5t-45 -130t-16 -159q0 -114 31 -164.5t102 -50.5zM454 -16q-89 0 -166.5 29.5t-134.5 86.5t-89 140.5t-32 191.5q0 141 46.5 259.5t125.5 204.5 t182.5 134t218.5 48q89 0 166 -29.5t134 -86.5t89.5 -140.5t32.5 -191.5q0 -139 -46.5 -257.5t-125.5 -205t-182.5 -135t-218.5 -48.5zM1029 1508l-280 -269q-25 -24 -48 -32.5t-57 -8.5h-182l158 251q18 29 43 44t71 15h295z" />
<glyph unicode="&#xf4;" horiz-adv-x="1058" d="M32 0zM482 219q53 0 95.5 32.5t71.5 88t45 130t16 158.5q0 116 -31.5 165.5t-101.5 49.5q-53 0 -95.5 -32.5t-71.5 -87.5t-45 -130t-16 -159q0 -114 31 -164.5t102 -50.5zM454 -16q-89 0 -166.5 29.5t-134.5 86.5t-89 140.5t-32 191.5q0 141 46.5 259.5t125.5 204.5 t182.5 134t218.5 48q89 0 166 -29.5t134 -86.5t89.5 -140.5t32.5 -191.5q0 -139 -46.5 -257.5t-125.5 -205t-182.5 -135t-218.5 -48.5zM972 1198h-203q-17 0 -33 6t-22 15l-66 76q-5 5 -10.5 11t-10.5 13q-8 -7 -15 -13t-13 -11l-86 -76q-9 -8 -26 -14.5t-35 -6.5h-211 l258 294h289z" />
<glyph unicode="&#xf5;" horiz-adv-x="1058" d="M32 0zM482 219q53 0 95.5 32.5t71.5 88t45 130t16 158.5q0 116 -31.5 165.5t-101.5 49.5q-53 0 -95.5 -32.5t-71.5 -87.5t-45 -130t-16 -159q0 -114 31 -164.5t102 -50.5zM454 -16q-89 0 -166.5 29.5t-134.5 86.5t-89 140.5t-32 191.5q0 141 46.5 259.5t125.5 204.5 t182.5 134t218.5 48q89 0 166 -29.5t134 -86.5t89.5 -140.5t32.5 -191.5q0 -139 -46.5 -257.5t-125.5 -205t-182.5 -135t-218.5 -48.5zM734 1416q22 0 37 14t21 56h184q-8 -62 -31 -113t-57.5 -86.5t-77.5 -55t-90 -19.5q-36 0 -64.5 12.5t-52.5 27t-43.5 26.5t-36.5 12 q-22 0 -36 -15t-19 -56h-186q7 62 31 112.5t58.5 87t77.5 56t89 19.5q35 0 64 -12.5t53 -26.5t43.5 -26.5t35.5 -12.5z" />
<glyph unicode="&#xf6;" horiz-adv-x="1058" d="M32 0zM482 219q53 0 95.5 32.5t71.5 88t45 130t16 158.5q0 116 -31.5 165.5t-101.5 49.5q-53 0 -95.5 -32.5t-71.5 -87.5t-45 -130t-16 -159q0 -114 31 -164.5t102 -50.5zM454 -16q-89 0 -166.5 29.5t-134.5 86.5t-89 140.5t-32 191.5q0 141 46.5 259.5t125.5 204.5 t182.5 134t218.5 48q89 0 166 -29.5t134 -86.5t89.5 -140.5t32.5 -191.5q0 -139 -46.5 -257.5t-125.5 -205t-182.5 -135t-218.5 -48.5zM593 1351q0 -33 -13.5 -62t-36.5 -49.5t-53 -33t-65 -12.5q-33 0 -62 12.5t-51 33t-35.5 49.5t-13.5 62q0 34 13.5 63.5t35.5 51.5 t51 34.5t62 12.5q35 0 65 -12.5t53 -34.5t36.5 -51.5t13.5 -63.5zM988 1351q0 -33 -12.5 -62t-35 -49.5t-53 -33t-65.5 -12.5q-34 0 -63.5 12.5t-52 33t-35 49.5t-12.5 62q0 34 12.5 63.5t35 51.5t52.5 34.5t63 12.5q35 0 65.5 -12.5t53 -34.5t35 -51.5t12.5 -63.5z" />
<glyph unicode="&#xf7;" d="M125 798h1012l-29 -219h-1012zM483 1032q0 40 16 75t43 61t63 41t77 15q34 0 62.5 -12t49 -33t32.5 -49t12 -60q0 -40 -16.5 -74.5t-44 -60t-63.5 -39.5t-75 -14q-35 0 -63.5 11.5t-49 31.5t-32 47.5t-11.5 59.5zM393 303q0 40 16 75t43 61t63 41t77 15q34 0 62.5 -12 t49 -33t32.5 -49t12 -60q0 -40 -16.5 -75t-44.5 -60t-63.5 -39t-74.5 -14q-35 0 -63.5 11.5t-49 31.5t-32 47.5t-11.5 59.5z" />
<glyph unicode="&#xf8;" horiz-adv-x="1058" d="M454 -16q-110 0 -200 44q-37 -39 -83.5 -55.5t-91.5 -16.5h-115l145 197q-37 54 -57 123.5t-20 155.5q0 141 46.5 259.5t125.5 204.5t182.5 134t218.5 48q108 0 199 -44q15 20 28.5 34.5t29 24t34 13.5t45.5 4h156l-148 -201q37 -54 57.5 -123.5t20.5 -155.5 q0 -139 -46.5 -257.5t-125.5 -205t-182.5 -135t-218.5 -48.5zM482 200q53 0 98.5 30t78.5 85.5t52 134.5t19 178q0 5 -0.5 9t-0.5 9l-310 -432q28 -14 63 -14zM329 417l308 432q-29 13 -60 13q-53 0 -98.5 -29.5t-78.5 -85t-52 -134.5t-19 -179v-17z" />
<glyph unicode="&#xf9;" horiz-adv-x="1124" d="M68 0zM470 1062l-80 -674q-2 -16 -3 -30t-1 -26q0 -54 19 -76t57 -22q32 0 67 19t68 53.5t61 83.5t47 110l68 562h318l-129 -1062h-162q-113 0 -113 104v68q-77 -96 -165 -142t-183 -46q-59 0 -109 21.5t-86 63t-56 102t-20 139.5q0 18 1.5 38t3.5 40l80 674h317z M579 1508q45 0 66 -14.5t32 -44.5l96 -251h-174q-34 0 -54 9t-38 32l-215 269h287z" />
<glyph unicode="&#xfa;" horiz-adv-x="1124" d="M68 0zM470 1062l-80 -674q-2 -16 -3 -30t-1 -26q0 -54 19 -76t57 -22q32 0 67 19t68 53.5t61 83.5t47 110l68 562h318l-129 -1062h-162q-113 0 -113 104v68q-77 -96 -165 -142t-183 -46q-59 0 -109 21.5t-86 63t-56 102t-20 139.5q0 18 1.5 38t3.5 40l80 674h317z M1055 1508l-280 -269q-25 -24 -48 -32.5t-57 -8.5h-182l158 251q18 29 43 44t71 15h295z" />
<glyph unicode="&#xfb;" horiz-adv-x="1124" d="M68 0zM470 1062l-80 -674q-2 -16 -3 -30t-1 -26q0 -54 19 -76t57 -22q32 0 67 19t68 53.5t61 83.5t47 110l68 562h318l-129 -1062h-162q-113 0 -113 104v68q-77 -96 -165 -142t-183 -46q-59 0 -109 21.5t-86 63t-56 102t-20 139.5q0 18 1.5 38t3.5 40l80 674h317z M998 1198h-203q-17 0 -33 6t-22 15l-66 76q-5 5 -10.5 11t-10.5 13q-8 -7 -15 -13t-13 -11l-86 -76q-9 -8 -26 -14.5t-35 -6.5h-211l258 294h289z" />
<glyph unicode="&#xfc;" horiz-adv-x="1124" d="M68 0zM470 1062l-80 -674q-2 -16 -3 -30t-1 -26q0 -54 19 -76t57 -22q32 0 67 19t68 53.5t61 83.5t47 110l68 562h318l-129 -1062h-162q-113 0 -113 104v68q-77 -96 -165 -142t-183 -46q-59 0 -109 21.5t-86 63t-56 102t-20 139.5q0 18 1.5 38t3.5 40l80 674h317z M619 1351q0 -33 -13.5 -62t-36.5 -49.5t-53 -33t-65 -12.5q-33 0 -62 12.5t-51 33t-35.5 49.5t-13.5 62q0 34 13.5 63.5t35.5 51.5t51 34.5t62 12.5q35 0 65 -12.5t53 -34.5t36.5 -51.5t13.5 -63.5zM1014 1351q0 -33 -12.5 -62t-35 -49.5t-53 -33t-65.5 -12.5 q-34 0 -63.5 12.5t-52 33t-35 49.5t-12.5 62q0 34 12.5 63.5t35 51.5t52.5 34.5t63 12.5q35 0 65.5 -12.5t53 -34.5t35 -51.5t12.5 -63.5z" />
<glyph unicode="&#xfd;" horiz-adv-x="1056" d="M75 0zM431 -276q-16 -32 -40 -46.5t-58 -14.5h-238l243 432l-263 967h268q34 0 51 -16.5t23 -38.5l92 -458q6 -30 11 -59t8 -59q12 30 26.5 60t28.5 60l196 456q12 24 36 39.5t48 15.5h256zM1029 1508l-280 -269q-25 -24 -48 -32.5t-57 -8.5h-182l158 251q18 29 43 44 t71 15h295z" />
<glyph unicode="&#xfe;" horiz-adv-x="1116" d="M3 -337l227 1870h314l-79 -636q70 84 152.5 132.5t176.5 48.5q66 0 120 -23t93.5 -72t61.5 -125.5t22 -181.5q0 -139 -42.5 -264.5t-114.5 -221t-165.5 -151t-196.5 -55.5q-67 0 -119 21.5t-92 56.5l-36 -299q-2 -19 -12 -37t-26 -31.5t-38 -22.5t-47 -9h-199zM667 838 q-33 0 -69 -25.5t-69 -69t-62.5 -101.5t-48.5 -125l-32 -256q30 -24 66 -34t69 -10q55 0 102 37t80.5 97t52.5 136.5t19 156.5q0 101 -29.5 147.5t-78.5 46.5z" />
<glyph unicode="&#xff;" horiz-adv-x="1056" d="M75 0zM431 -276q-16 -32 -40 -46.5t-58 -14.5h-238l243 432l-263 967h268q34 0 51 -16.5t23 -38.5l92 -458q6 -30 11 -59t8 -59q12 30 26.5 60t28.5 60l196 456q12 24 36 39.5t48 15.5h256zM593 1351q0 -33 -13.5 -62t-36.5 -49.5t-53 -33t-65 -12.5q-33 0 -62 12.5 t-51 33t-35.5 49.5t-13.5 62q0 34 13.5 63.5t35.5 51.5t51 34.5t62 12.5q35 0 65 -12.5t53 -34.5t36.5 -51.5t13.5 -63.5zM988 1351q0 -33 -12.5 -62t-35 -49.5t-53 -33t-65.5 -12.5q-34 0 -63.5 12.5t-52 33t-35 49.5t-12.5 62q0 34 12.5 63.5t35 51.5t52.5 34.5t63 12.5 q35 0 65.5 -12.5t53 -34.5t35 -51.5t12.5 -63.5z" />
<glyph unicode="&#x131;" horiz-adv-x="552" d="M497 1062l-127 -1062h-314l127 1062h314z" />
<glyph unicode="&#x152;" horiz-adv-x="1998" d="M2023 1235h-554l-44 -363h422l-30 -247h-422l-45 -368h555l-33 -257h-850l17 139q-88 -74 -195.5 -114.5t-231.5 -40.5q-131 0 -235.5 50.5t-176.5 138.5t-110.5 208t-38.5 258q0 183 56.5 342t156.5 276t236.5 184t298.5 67q126 0 222.5 -47.5t164.5 -130.5l20 162h850z M1081 844q0 90 -17.5 164.5t-53 128.5t-88.5 84t-121 30q-95 0 -171 -44.5t-128 -125t-80.5 -191.5t-28.5 -244q0 -89 18 -163.5t54 -128.5t89 -83.5t124 -29.5q93 0 168 44.5t127 124t80 190.5t28 244z" />
<glyph unicode="&#x153;" horiz-adv-x="1605" d="M1262 1076q73 0 132.5 -20t102 -56t66 -87.5t23.5 -113.5q0 -72 -28.5 -131.5t-98 -106t-188 -79.5t-297.5 -52q7 -111 54.5 -160t130.5 -49q42 0 73 7.5t54 18.5t41.5 23.5t35 23.5t35 18t42.5 7q15 0 29.5 -7.5t25.5 -19.5l82 -95q-56 -55 -110 -96t-111 -67t-121 -38 t-139 -12q-91 0 -170.5 42t-131.5 131q-77 -83 -177.5 -128t-218.5 -45q-87 0 -154.5 31.5t-114 85.5t-70.5 124.5t-24 149.5q0 116 23 212.5t63.5 175t95.5 136.5t120.5 97.5t138.5 59.5t148 20q94 0 165 -35.5t117 -102.5q67 65 155.5 101.5t200.5 36.5zM474 211 q59 0 103 29t73.5 83t46.5 129.5t23 169.5q1 12 1.5 22.5t0.5 22.5q0 88 -31.5 135t-95.5 47q-60 0 -107 -33.5t-78.5 -93.5t-48.5 -144t-17 -187q0 -36 6.5 -68.5t21.5 -57t40 -39.5t62 -15zM1211 864q-82 0 -142 -63t-84 -187q101 15 165.5 35.5t102.5 43t52.5 46.5 t14.5 48q0 32 -27 54.5t-82 22.5z" />
<glyph unicode="&#x178;" horiz-adv-x="1286" d="M100 0zM818 571l-70 -571h-334l70 568l-384 924h297q43 0 67 -20t36 -53l143 -451q14 -45 26 -87t20 -81q19 39 43 80.5t50 87.5l254 451q15 28 45 50.5t72 22.5h277zM747 1703q0 -29 -11 -53.5t-31 -43t-47 -28.5t-56 -10q-28 0 -53 10t-44.5 28.5t-31 43t-11.5 53.5 t11.5 55t31 45t44.5 30t53 11q30 0 56.5 -11t46.5 -30t31 -45t11 -55zM1114 1703q0 -29 -11.5 -53.5t-31 -43t-45.5 -28.5t-56 -10t-55.5 10t-44 28.5t-30 43t-11.5 53.5t11.5 55t30 45t44.5 30t55 11q30 0 56 -11t45.5 -30t31 -45t11.5 -55z" />
<glyph unicode="&#x2c6;" horiz-adv-x="626" d="M764 1196h-203q-17 0 -33 6t-22 15l-66 76q-5 5 -10.5 11t-10.5 13q-8 -7 -15 -13t-13 -11l-86 -76q-9 -8 -26 -14.5t-35 -6.5h-211l258 294h289z" />
<glyph unicode="&#x2da;" horiz-adv-x="626" d="M168 1366q0 51 20.5 92.5t54 71.5t79 45.5t94.5 15.5q50 0 96 -15.5t81.5 -45.5t56 -71.5t20.5 -92.5q0 -50 -20.5 -90.5t-56 -69t-81.5 -44.5t-96 -16q-49 0 -94.5 16t-79 44.5t-54 69t-20.5 90.5zM338 1366q0 -36 20 -59t62 -23q37 0 58.5 23t21.5 59q0 39 -21.5 61.5 t-58.5 22.5q-42 0 -62 -22.5t-20 -61.5z" />
<glyph unicode="&#x2dc;" horiz-adv-x="626" d="M526 1414q22 0 37 14t21 56h184q-8 -62 -31 -113t-57.5 -86.5t-77.5 -55t-90 -19.5q-36 0 -64.5 12.5t-52.5 27t-43.5 26.5t-36.5 12q-22 0 -36 -15t-19 -56h-186q7 62 31 112.5t58.5 87t77.5 56t89 19.5q35 0 64 -12.5t53 -26.5t43.5 -26.5t35.5 -12.5z" />
<glyph unicode="&#x2000;" horiz-adv-x="975" />
<glyph unicode="&#x2001;" horiz-adv-x="1950" />
<glyph unicode="&#x2002;" horiz-adv-x="975" />
<glyph unicode="&#x2003;" horiz-adv-x="1950" />
<glyph unicode="&#x2004;" horiz-adv-x="650" />
<glyph unicode="&#x2005;" horiz-adv-x="487" />
<glyph unicode="&#x2006;" horiz-adv-x="325" />
<glyph unicode="&#x2007;" horiz-adv-x="325" />
<glyph unicode="&#x2008;" horiz-adv-x="243" />
<glyph unicode="&#x2009;" horiz-adv-x="390" />
<glyph unicode="&#x200a;" horiz-adv-x="108" />
<glyph unicode="&#x2010;" horiz-adv-x="702" d="M125 745h514l-33 -247h-512z" />
<glyph unicode="&#x2011;" horiz-adv-x="702" d="M125 745h514l-33 -247h-512z" />
<glyph unicode="&#x2012;" horiz-adv-x="702" d="M125 745h514l-33 -247h-512z" />
<glyph unicode="&#x2013;" horiz-adv-x="1097" d="M190 725h775l-27 -210h-774z" />
<glyph unicode="&#x2014;" horiz-adv-x="1630" d="M190 725h1307l-27 -210h-1306z" />
<glyph unicode="&#x2018;" horiz-adv-x="448" d="M211 978q-25 50 -36.5 100t-11.5 101q0 121 67 234t198 207l87 -55q9 -5 14.5 -15t5.5 -20q0 -14 -7.5 -24.5t-22.5 -27.5q-9 -11 -24 -31.5t-28.5 -48t-23 -62t-9.5 -74.5q0 -32 7.5 -66.5t25.5 -72.5q4 -8 4 -19q0 -18 -14.5 -33.5t-39.5 -23.5z" />
<glyph unicode="&#x2019;" horiz-adv-x="448" d="M446 1580q25 -50 37 -100t12 -101q0 -121 -67.5 -234t-198.5 -207l-87 55q-9 5 -14 15t-5 20q0 14 7 24.5t22 27.5q10 10 24 31t28 48.5t24 62t10 74.5q0 32 -8 66.5t-25 72.5q-4 8 -4 19q0 18 14 33.5t39 23.5z" />
<glyph unicode="&#x201a;" horiz-adv-x="499" d="M305 332q25 -50 36.5 -100.5t11.5 -100.5q0 -121 -67 -234t-198 -207l-87 55q-9 5 -14 15t-5 20q0 14 7 24.5t21 27.5q10 10 24.5 30.5t28.5 48.5t23.5 62.5t9.5 74.5q0 32 -7.5 66t-25.5 72q-4 8 -4 20q0 18 14.5 33.5t39.5 23.5z" />
<glyph unicode="&#x201c;" horiz-adv-x="792" d="M211 978q-25 50 -36.5 100t-11.5 101q0 121 67 234t198 207l87 -55q9 -5 14.5 -15t5.5 -20q0 -14 -7.5 -24.5t-22.5 -27.5q-9 -11 -24 -31.5t-28.5 -48t-23 -62t-9.5 -74.5q0 -32 7.5 -66.5t25.5 -72.5q4 -8 4 -19q0 -18 -14.5 -33.5t-39.5 -23.5zM555 978 q-25 50 -36.5 100t-11.5 101q0 121 67 234t198 207l87 -55q9 -5 14.5 -15t5.5 -20q0 -14 -7.5 -24.5t-22.5 -27.5q-9 -11 -24 -31.5t-28.5 -48t-23 -62t-9.5 -74.5q0 -32 7.5 -66.5t25.5 -72.5q4 -8 4 -19q0 -18 -14.5 -33.5t-38.5 -23.5z" />
<glyph unicode="&#x201d;" horiz-adv-x="792" d="M446 1580q25 -50 37 -100t12 -101q0 -121 -67.5 -234t-198.5 -207l-87 55q-9 5 -14 15t-5 20q0 14 7 24.5t22 27.5q10 10 24 31t28 48.5t24 62t10 74.5q0 32 -8 66.5t-25 72.5q-4 8 -4 19q0 18 14 33.5t39 23.5zM788 1580q25 -50 37 -100t12 -101q0 -121 -67.5 -234 t-198.5 -207l-87 55q-9 5 -14 15t-5 20q0 14 7 24.5t22 27.5q10 10 24 31t28 48.5t24 62t10 74.5q0 32 -8 66.5t-25 72.5q-4 8 -4 19q0 18 14 33.5t39 23.5z" />
<glyph unicode="&#x201e;" horiz-adv-x="792" d="M305 332q25 -50 36.5 -100.5t11.5 -100.5q0 -121 -67 -234t-198 -207l-87 55q-9 5 -14 15t-5 20q0 14 7 24.5t21 27.5q10 10 24.5 30.5t28.5 48.5t23.5 62.5t9.5 74.5q0 32 -7.5 66t-25.5 72q-4 8 -4 20q0 18 14.5 33.5t39.5 23.5zM649 332q25 -50 36.5 -100.5 t11.5 -100.5q0 -121 -67 -234t-198 -207l-87 55q-9 5 -14 15t-5 20q0 14 7 24.5t21 27.5q10 10 24.5 30.5t28.5 48.5t23.5 62.5t9.5 74.5q0 32 -7.5 66t-24.5 72q-4 8 -5 20q0 18 14.5 33.5t39.5 23.5z" />
<glyph unicode="&#x2022;" d="M102 606q0 102 40 192.5t108.5 158t161 106.5t196.5 39q105 0 197.5 -39t161.5 -106.5t109 -157.5t40 -193q0 -101 -40 -191t-109 -157t-161 -105.5t-198 -38.5q-104 0 -196.5 38.5t-161 105.5t-108.5 157t-40 191z" />
<glyph unicode="&#x2026;" horiz-adv-x="1613" d="M25 161q0 37 13.5 68.5t37.5 55t57 37.5t72 14q38 0 70.5 -14t57 -37.5t38.5 -55t14 -68.5t-14 -69.5t-38.5 -56t-57 -36.5t-70.5 -13q-39 0 -72 13t-57 36.5t-37.5 56t-13.5 69.5zM590 161q0 37 13.5 68.5t38 55t57 37.5t71.5 14q38 0 70.5 -14t57.5 -37.5t38.5 -55 t13.5 -68.5t-13.5 -69.5t-38.5 -56t-57.5 -36.5t-70.5 -13q-39 0 -71.5 13t-57 36.5t-38 56t-13.5 69.5zM1155 161q0 37 14 68.5t38 55t56.5 37.5t71.5 14q38 0 71 -14t57.5 -37.5t38.5 -55t14 -68.5t-14 -69.5t-38.5 -56t-57.5 -36.5t-71 -13q-39 0 -71.5 13t-56.5 36.5 t-38 56t-14 69.5z" />
<glyph unicode="&#x202f;" horiz-adv-x="390" />
<glyph unicode="&#x2039;" horiz-adv-x="641" d="M114 538l6 37l299 410l94 -45q39 -18 39 -53q0 -14 -6 -28.5t-17 -31.5l-135 -224q-9 -15 -19.5 -27t-22.5 -20q8 -9 16.5 -20.5t13.5 -25.5l82 -224q4 -11 6.5 -21.5t2.5 -20.5q0 -48 -54 -73l-107 -45z" />
<glyph unicode="&#x203a;" horiz-adv-x="641" d="M545 575l-4 -37l-299 -412l-95 45q-40 19 -39 55q0 14 5.5 28.5t15.5 31.5l137 224q8 14 19 25.5t22 19.5q-18 18 -28 48l-84 224q-8 22 -9 39q0 24 13.5 43.5t42.5 30.5l106 45z" />
<glyph unicode="&#x205f;" horiz-adv-x="487" />
<glyph unicode="&#x20ac;" d="M98 969h119q40 124 104.5 222.5t149 168.5t185 107t210.5 37q72 0 132.5 -14.5t109.5 -42.5t87 -66.5t65 -85.5l-123 -113q-14 -13 -28.5 -23t-39.5 -10q-15 0 -27 7.5t-23.5 18.5t-25 24t-33 24t-47 18.5t-67.5 7.5q-105 0 -188 -71.5t-129 -208.5h489l-10 -92 q-2 -12 -10 -25t-20 -23t-28.5 -16.5t-36.5 -6.5h-421q-3 -24 -6 -49t-5 -50h408l-12 -91q-2 -13 -10 -26t-20 -23.5t-28 -16.5t-35 -6h-302q12 -151 72 -227t157 -76q67 0 107 17.5t67 40t46.5 40t45.5 17.5q14 0 23 -3t18 -14l119 -120q-85 -115 -206.5 -174t-266.5 -59 q-120 0 -210 41.5t-152 115.5t-96 176.5t-41 224.5h-120l21 163h102q2 26 4.5 50t6.5 49h-101z" />
<glyph unicode="&#x2122;" horiz-adv-x="1380" d="M991 1228q6 -20 11.5 -45t10.5 -45q9 20 19.5 43t24.5 47l114 231q11 24 26.5 27.5t39.5 3.5h186l-75 -626h-185l33 269l26 107l-145 -277q-11 -22 -32 -32.5t-46 -10.5h-28q-24 0 -42.5 11t-23.5 32l-72 270q0 -29 -1 -56.5t-3 -43.5l-30 -269h-183l76 626h177 q26 0 45 -4t24 -27zM651 1490l-22 -167h-139l-56 -459h-207l55 459h-137l23 167h483z" />
<glyph unicode="&#x25fc;" horiz-adv-x="1059" d="M0 1060h1060v-1060h-1060v1060z" />
<glyph horiz-adv-x="626" d="M362 1839q23 0 38.5 -2t27.5 -6.5t22.5 -14t22.5 -22.5l145 -206h-262q-34 0 -52.5 11t-41.5 31l-237 209h337z" />
<glyph horiz-adv-x="626" d="M389 1706q0 -29 -11 -53.5t-31 -43t-47 -28.5t-56 -10q-28 0 -53 10t-44.5 28.5t-31 43t-11.5 53.5t11.5 55t31 45t44.5 30t53 11q30 0 56.5 -11t46.5 -30t31 -45t11 -55zM756 1706q0 -29 -11.5 -53.5t-31 -43t-45.5 -28.5t-56 -10t-55.5 10t-44 28.5t-30 43t-11.5 53.5 t11.5 55t30 45t44.5 30t55 11q30 0 56 -11t45.5 -30t31 -45t11.5 -55z" />
<glyph horiz-adv-x="626" d="M907 1839l-289 -209q-33 -24 -58 -33t-57 -9h-251l197 206q15 13 27 22.5t26 14t30 6.5t39 2h336z" />
<glyph horiz-adv-x="626" d="M827 1588h-231q-17 0 -37.5 4t-32.5 15l-73 64l-91 -64q-13 -9 -34 -14t-39 -5h-230l258 231h308z" />
<glyph horiz-adv-x="626" d="M211 1742q0 47 19 85.5t50 65.5t72 42t86 15q47 0 89 -15t74.5 -42t51.5 -65.5t19 -85.5q0 -45 -19 -82.5t-51.5 -64t-74.5 -41t-89 -14.5q-45 0 -86 14.5t-72 41t-50 64t-19 82.5zM360 1742q0 -36 20 -59t62 -23q37 0 58.5 23t21.5 59q0 39 -21.5 61.5t-58.5 22.5 q-42 0 -62 -22.5t-20 -61.5z" />
<glyph horiz-adv-x="626" d="M586 1764q18 0 33 13t18 42h166q-7 -55 -26.5 -100.5t-50.5 -78t-70.5 -50.5t-86.5 -18q-35 0 -67 10t-60.5 22t-52.5 22t-41 10q-18 0 -32 -14t-17 -44h-168q7 55 27 100.5t51 79t70 51.5t86 18q35 0 67.5 -10t61 -21.5t52 -21.5t40.5 -10z" />
<glyph horiz-adv-x="626" d="M0 0z" />
</font>
</defs>
</svg>
